<?xml version="1.0" standalone="no"?>
<!DOCTYPE svg PUBLIC "-//W3C//DTD SVG 1.1//EN" "http://www.w3.org/Graphics/SVG/1.1/DTD/svg11.dtd" >
<svg xmlns="http://www.w3.org/2000/svg">
<metadata></metadata>
<defs>
<font id="00650regular" horiz-adv-x="1024" >
<font-face units-per-em="2048" ascent="1638" descent="-410" />
<missing-glyph horiz-adv-x="606" />
<glyph horiz-adv-x="0" />
<glyph unicode="&#xd;" horiz-adv-x="606" />
<glyph unicode=" "  horiz-adv-x="606" />
<glyph unicode="&#x09;" horiz-adv-x="606" />
<glyph unicode="&#xa0;" horiz-adv-x="606" />
<glyph unicode="!" horiz-adv-x="653" d="M199 0v250h254v-250h-254zM199 903v543h254v-543l-70 -538h-115z" />
<glyph unicode="&#x22;" horiz-adv-x="643" d="M86 879v557h164v-557h-164zM395 879v557h164v-557h-164z" />
<glyph unicode="#" horiz-adv-x="1575" d="M70 428l61 172h297l90 252h-315l61 172h316l155 436h191l-154 -436h250l156 436h190l-154 -436h291l-59 -172h-293l-90 -252h309l-61 -172h-307l-156 -434h-191l156 434h-252l-158 -434h-190l156 434h-299zM618 598h256l91 254h-256z" />
<glyph unicode="$" horiz-adv-x="1214" d="M147 338l168 147q126 -120 234 -120v249q-363 53 -363 301q0 141 114 232q100 81 249 96v139h104l1 -135q95 0 195 -44q93 -41 169 -116l-135 -141q-90 83 -230 104v-225q394 -43 394 -313q0 -150 -109 -249q-116 -105 -284 -105l-1 -183h-104v181q-107 0 -227 54 q-100 45 -175 128zM414 940q0 -76 135 -100v207q-135 -13 -135 -107zM653 369h6q63 0 107 28q51 33 51 92q0 60 -55 88q-30 15 -109 29v-237z" />
<glyph unicode="%" horiz-adv-x="1442" d="M49 1094q0 141 74 230q80 97 217 97t217 -97q76 -90 76 -230q0 -141 -75 -230q-80 -96 -218 -96q-136 0 -216 97q-75 90 -75 229zM209 1096q0 -71 29 -118q35 -56 102 -56q66 0 103 56q32 49 32 118q0 72 -31 119q-36 55 -104 55q-67 0 -102 -56q-29 -47 -29 -118z M250 -25l739 1446h195l-738 -1446h-196zM803 303q0 141 74 231q79 97 217 97t217 -97q73 -90 73 -231q0 -142 -73 -231q-79 -97 -217 -97q-129 0 -210 89t-81 239zM961 303q0 -70 31 -118q36 -56 102 -56q65 0 102 57q31 49 31 117q0 71 -30 118q-36 56 -103 56 q-66 0 -102 -56q-31 -48 -31 -118z" />
<glyph unicode="&#x26;" horiz-adv-x="1270" d="M47 393q0 276 318 418q-80 135 -80 246q0 134 97 226.5t232 92.5q137 0 232 -84q98 -87 98 -223q0 -238 -282 -346q75 -140 192 -289q62 68 84 225h227q-35 -237 -168 -397q41 -53 130 -65q30 -4 73 -4h17v-203h-136q-141 0 -241 106q-158 -127 -344 -127 q-190 0 -317 116q-132 120 -132 308zM281 410q0 -96 68 -165t161 -69q99 0 203 88q-74 92 -136 185q-27 40 -76 121q-35 58 -46 77q-174 -91 -174 -237zM506 1053q0 -69 63 -170q185 61 185 184q0 53 -35 90t-88 37q-58 0 -91.5 -41t-33.5 -100z" />
<glyph unicode="'" horiz-adv-x="334" d="M86 879v557h164v-557h-164z" />
<glyph unicode="(" horiz-adv-x="688" d="M102 588q0 517 478 891l84 -82q-156 -169 -226.5 -360t-70.5 -449q0 -259 70.5 -451t226.5 -360l-84 -82q-478 377 -478 893z" />
<glyph unicode=")" horiz-adv-x="688" d="M23 -223q296 321 296 811q0 249 -65 435q-70 200 -231 374l86 82q477 -377 477 -891q0 -515 -477 -893z" />
<glyph unicode="*" d="M113 1096l49 153l270 -88v285h160v-285l270 88l49 -153l-272 -86l174 -224l-127 -100l-174 223l-174 -223l-127 100l174 224z" />
<glyph unicode="+" horiz-adv-x="1706" d="M254 528v166h514v527h170v-527h514v-166h-514v-528h-170v528h-514z" />
<glyph unicode="," horiz-adv-x="606" d="M55 -285l170 535h230l-250 -535h-150z" />
<glyph unicode="-" horiz-adv-x="750" d="M76 424v194h598v-194h-598z" />
<glyph unicode="." horiz-adv-x="606" d="M176 0v250h256v-250h-256z" />
<glyph unicode="/" horiz-adv-x="569" d="M-90 -190l573 1669h183l-574 -1669h-182z" />
<glyph unicode="0" horiz-adv-x="1214" d="M66 711q0 335 143.5 523.5t394.5 188.5q280 0 424 -225q121 -190 121 -487q0 -312 -113 -501q-140 -233 -430 -233q-289 0 -428 234q-112 189 -112 500zM307 705q0 -201 52 -332q75 -189 245 -189q301 0 301 527q0 506 -297 506q-171 0 -247 -183q-54 -129 -54 -329z" />
<glyph unicode="1" horiz-adv-x="692" d="M74 969v176q182 0 243 254h199v-1399h-237v920q0 49 -50 49h-155z" />
<glyph unicode="2" horiz-adv-x="1214" d="M121 0v197q334 240 435 331q284 254 284 443q0 94 -66 161.5t-160 67.5q-103 0 -169 -76q-72 -84 -66 -198l4 -70l-250 43v23q0 221 128 358q132 141 351 141q210 0 344 -121q140 -126 140 -333q0 -223 -225 -442q-108 -105 -410 -312h657v-213h-997z" />
<glyph unicode="3" horiz-adv-x="1214" d="M100 408l232 34q0 -114 84 -191q81 -75 196 -75q111 0 185.5 68t74.5 178q0 114 -79 173q-86 63 -236 58l-33 -1h-20v184h21q10 0 24 -2h6q299 0 299 196q0 92 -71 148q-65 51 -160 51q-112 0 -183 -74q-67 -70 -80 -184l-219 55q68 397 473 397q195 0 326 -92 q150 -104 150 -291q0 -216 -207 -288q241 -103 241 -351q0 -210 -160 -325q-142 -103 -360 -103q-457 0 -504 435z" />
<glyph unicode="4" horiz-adv-x="1214" d="M98 344v213l615 842h233v-854h191v-201h-191v-344h-229v344h-619zM305 541h408v559z" />
<glyph unicode="5" horiz-adv-x="1214" d="M86 389l258 22q0 -107 77 -170q72 -59 181 -59q131 0 213 91q78 88 78 221q0 130 -80 217.5t-209 87.5q-194 0 -256 -152l-221 15l147 737h809l-34 -209h-605l-51 -260q112 76 244 76q221 0 359.5 -140t138.5 -362q0 -247 -145.5 -389t-393.5 -142q-206 0 -340 106 q-140 110 -170 310z" />
<glyph unicode="6" horiz-adv-x="1214" d="M115 682q0 306 120 504q145 239 431 239q171 0 292 -91q124 -94 158 -259l-219 -33q-55 177 -231 177q-141 0 -227.5 -113.5t-86.5 -304.5q112 141 307 141q202 0 338 -138.5t136 -340.5q0 -210 -139 -348t-349 -138q-281 0 -417 222q-113 183 -113 483zM383 453 q0 -114 69 -191q72 -80 185 -80q117 0 190 85q68 81 68 200t-68 195.5t-186 76.5q-121 0 -191 -84q-67 -79 -67 -202z" />
<glyph unicode="7" horiz-adv-x="987" d="M37 1190v209h938v-197q-412 -494 -504 -1202h-281q100 607 523 1190h-676z" />
<glyph unicode="8" horiz-adv-x="1214" d="M86 410q0 114 59.5 202t165.5 129q-180 88 -180 295q0 187 152 293q133 92 329 92t323 -95q142 -105 142 -294q0 -192 -172 -291q217 -91 217 -325q0 -211 -152 -332q-140 -111 -356 -111q-225 0 -367 104q-161 117 -161 333zM328 406q0 -105 88 -169q80 -57 188 -57 q114 0 191 57q86 63 86 173q0 104 -82 169q-77 60 -183 60q-121 0 -199 -55q-89 -62 -89 -178zM354 1028q0 -93 81 -148q72 -49 169 -49t168 55q78 60 78 154q0 88 -78 141q-68 46 -160 46q-100 0 -174 -48q-84 -56 -84 -151z" />
<glyph unicode="9" horiz-adv-x="1214" d="M104 938q0 210 139 347.5t349 137.5q281 0 417 -220q111 -181 111 -482q0 -307 -119 -504q-145 -240 -432 -240q-172 0 -292 91q-124 94 -158 260l221 30q56 -176 229 -176q142 0 227 112q89 118 89 306q-53 -68 -133 -104.5t-174 -36.5q-202 0 -338 138.5t-136 340.5z M342 936q0 -118 67 -193q70 -79 187 -79q118 0 189 85q67 80 67 201q0 114 -71 191.5t-183 77.5q-118 0 -189 -84q-67 -79 -67 -199z" />
<glyph unicode=":" horiz-adv-x="653" d="M199 0v250h256v-250h-256zM199 655v248h256v-248h-256z" />
<glyph unicode=";" horiz-adv-x="653" d="M55 -285l170 535h230l-250 -535h-150zM199 655v248h256v-248h-256z" />
<glyph unicode="&#x3c;" horiz-adv-x="1706" d="M264 530v160l1178 486v-185l-934 -381l934 -381v-182z" />
<glyph unicode="=" horiz-adv-x="1706" d="M254 322v165h1198v-165h-1198zM254 733v168h1198v-168h-1198z" />
<glyph unicode="&#x3e;" horiz-adv-x="1706" d="M264 47v182l934 381l-934 381v185l1178 -486v-160z" />
<glyph unicode="?" horiz-adv-x="1110" d="M49 1022q38 203 154 316q125 122 325 122q206 0 335 -112q136 -117 136 -320q0 -216 -244 -379l-18 -12q-88 -59 -88 -139v-109h-207v137q0 97 20 148q21 57 64 86l64 44q153 105 153 222q0 97 -61 154t-158 57q-101 0 -172 -76q-74 -80 -74 -190zM418 0v250h256v-250 h-256z" />
<glyph unicode="@" horiz-adv-x="2048" d="M98 522q0 336 205 586q300 365 813 365q347 0 570 -173q264 -205 264 -536q0 -341 -250 -539q-70 -56 -149.5 -84t-168.5 -28q-208 0 -208 166v4q-105 -168 -304 -168q-313 0 -313 336q0 216 125 379q136 178 346 178q175 0 248 -142l55 107h154l-156 -635q0 -84 96 -84 q107 0 213 115q74 80 110 177q38 102 38 216q0 272 -208 428q-187 141 -468 141q-274 0 -471 -125q-377 -239 -377 -686q0 -327 225 -513q209 -173 543 -173q343 0 615 191l67 -99q-301 -227 -674 -227q-383 0 -632 190q-156 119 -232 275t-76 358zM741 444q0 -204 174 -204 q96 0 171 74q68 67 92 165l55 228q-29 176 -184 176q-145 0 -233 -154q-75 -130 -75 -285z" />
<glyph unicode="A" horiz-adv-x="1262" d="M18 0l453 1446h295l467 -1446h-258l-70 227h-571l-66 -227h-250zM401 451h437l-211 730l-11 74q0 -32 -8 -71l-12 -58z" />
<glyph unicode="B" horiz-adv-x="1358" d="M154 0v1446h557q232 0 355.5 -95t123.5 -272q0 -209 -191 -282q122 -32 194.5 -129.5t72.5 -225.5q0 -221 -139 -336q-129 -106 -355 -106h-618zM399 223h365q103 0 168 56q69 59 69 161q0 105 -66 165q-63 57 -169 57h-367v-439zM399 874h324q88 0 147 46q64 50 64 135 q0 172 -223 172h-312v-353z" />
<glyph unicode="C" horiz-adv-x="1360" d="M76 729q0 316 156 523q173 229 479 229q455 0 565 -445l-236 -65q-31 124 -115 200q-89 82 -212 82q-187 0 -290 -174q-87 -146 -87 -346q0 -211 85 -357q103 -177 300 -177q125 0 217 88q80 78 119 207l225 -99q-149 -430 -573 -430q-316 0 -484 231q-149 205 -149 533z " />
<glyph unicode="D" horiz-adv-x="1370" d="M154 0v1446h485q319 0 491 -208q160 -193 160 -519q0 -338 -166 -524q-175 -195 -508 -195h-462zM401 227h215q416 0 416 488q0 504 -420 504h-211v-992z" />
<glyph unicode="E" horiz-adv-x="1233" d="M154 0v1446h962v-223h-715v-359h660v-221h-660v-418h744v-225h-991z" />
<glyph unicode="F" horiz-adv-x="1178" d="M154 0v1446h919v-227h-672v-349h623v-225h-623v-645h-247z" />
<glyph unicode="G" horiz-adv-x="1446" d="M76 713q0 328 165 539q181 231 500 231q428 0 580 -414l-219 -96q-107 278 -363 278q-197 0 -308 -170q-95 -146 -95 -354q0 -220 94 -363q110 -167 318 -167q158 0 253 95.5t95 254.5v4h-334v229h563v-780h-227v106q-139 -143 -375 -143q-309 0 -485 226 q-162 206 -162 524z" />
<glyph unicode="H" horiz-adv-x="1430" d="M154 0v1446h247v-576h627v576h246v-1446h-246v643h-627v-643h-247z" />
<glyph unicode="I" horiz-adv-x="559" d="M154 0v1446h252v-1446h-252z" />
<glyph unicode="J" horiz-adv-x="823" d="M66 6v229l64 -8l73 -2h12q113 0 162 54t49 210v957h248v-1038q0 -416 -430 -416h-61q-21 3 -30 4q-25 0 -87 10z" />
<glyph unicode="K" horiz-adv-x="1311" d="M152 0v1446h245v-701l547 701h303l-456 -559l503 -887h-280l-391 694l-226 -272v-422h-245z" />
<glyph unicode="L" horiz-adv-x="1036" d="M164 0v1446h252v-1219h577v-227h-829z" />
<glyph unicode="M" horiz-adv-x="1556" d="M154 0v1446h391l244 -1134q8 67 20 149l209 985h385v-1446h-238v1253q0 -16 -7 -51l-15 -74l-256 -1128h-213l-263 1142q-13 62 -20 111v-1253h-237z" />
<glyph unicode="N" horiz-adv-x="1391" d="M154 0v1446h237l557 -944q18 -30 40 -84q17 -40 32 -100l-19 110q-6 35 -6 76v942h242v-1446h-231l-562 946q-21 36 -41 85q-15 37 -32 99l17 -110l7 -76v-944h-241z" />
<glyph unicode="O" horiz-adv-x="1448" d="M76 721q0 323 160 530q176 228 489 228q311 0 487 -229q160 -208 160 -529t-160 -529q-175 -229 -487 -229t-489 229q-160 207 -160 529zM336 721q0 -216 85 -355q102 -169 304 -169q201 0 303 169q84 140 84 355q0 216 -84 355q-101 169 -303 169t-304 -169 q-85 -139 -85 -355z" />
<glyph unicode="P" horiz-adv-x="1225" d="M154 0v1446h510q231 0 359 -120q132 -124 132 -353q0 -214 -130 -340.5t-345 -126.5h-279v-506h-247zM401 727h250q116 0 180 65t64 181q0 250 -240 250h-254v-496z" />
<glyph unicode="Q" horiz-adv-x="1485" d="M76 721q0 322 160 530q177 228 489 228t488 -229q159 -207 159 -529q0 -255 -102 -436q82 -75 191 -102q35 -9 69 -9l-70 -227q-89 10 -164 53.5t-147 126.5q-182 -164 -424 -164q-312 0 -489 229q-160 207 -160 529zM336 721q0 -216 85 -355q102 -169 304 -169 q201 0 303 169q84 140 84 355q0 216 -84 355q-101 169 -303 169t-304 -169q-85 -139 -85 -355z" />
<glyph unicode="R" horiz-adv-x="1309" d="M154 0v1446h514q524 0 524 -430q0 -308 -285 -420l342 -596h-280l-312 563h-256v-563h-247zM401 778h263q272 0 272 228q0 215 -262 215h-273v-443z" />
<glyph unicode="S" horiz-adv-x="1298" d="M55 246l209 164q155 -213 385 -213q114 0 197 46q102 57 102 163q0 145 -332 214l-92 19q-214 44 -315 142q-98 95 -98 255q0 213 156 334q143 111 362 111q364 0 555 -258l-191 -148q-123 182 -360 182q-106 0 -177 -38q-91 -48 -91 -144q0 -147 338 -213l51 -10 q244 -48 349 -145q107 -100 107 -277q0 -225 -172 -354q-154 -115 -387 -115q-415 0 -596 285z" />
<glyph unicode="T" horiz-adv-x="1198" d="M84 1210v236h1030v-236h-389v-1210h-252v1210h-389z" />
<glyph unicode="U" horiz-adv-x="1350" d="M131 508v938h246v-916q0 -331 297 -331t297 331v916h246v-938q0 -543 -543 -543t-543 543z" />
<glyph unicode="V" horiz-adv-x="1241" d="M47 1446h258l320 -1200q10 64 33 143l1 6l287 1051h252l-420 -1446h-313z" />
<glyph unicode="W" horiz-adv-x="1774" d="M61 1446h244l213 -1106l8 -102l4 41q4 30 12 89q0 4 9 52l190 1026h301l204 -1108q9 -58 9 -100l8 86l15 96l184 1026h248l-303 -1446h-293l-229 1232q0 -48 -4 -77q-3 -17 -6 -43q0 -16 -2 -42q-3 -12 -9 -44l-190 -1026h-301z" />
<glyph unicode="X" horiz-adv-x="1229" d="M-6 0l483 782l-411 664h284l260 -469l258 469h281l-406 -653l492 -793h-295l-332 596l-338 -596h-276z" />
<glyph unicode="Y" horiz-adv-x="1128" d="M-33 1446h279l317 -653l322 653h274l-475 -866v-580h-248v571z" />
<glyph unicode="Z" horiz-adv-x="1151" d="M66 0v168l675 1065h-653v213h963v-154l-682 -1073h682v-219h-985z" />
<glyph unicode="[" horiz-adv-x="688" d="M158 -270v1716h481v-180h-264v-1356h264v-180h-481z" />
<glyph unicode="\" horiz-adv-x="569" d="M-90 1479h180l576 -1669h-183z" />
<glyph unicode="]" horiz-adv-x="688" d="M47 -90h264v1356h-264v180h483v-1716h-483v180z" />
<glyph unicode="^" horiz-adv-x="2048" d="M418 899l497 561h218l495 -561h-207l-397 397l-399 -397h-207z" />
<glyph unicode="_" d="M0 -311h1024v-172h-1024v172z" />
<glyph unicode="`" d="M238 1397h235l176 -252h-172z" />
<glyph unicode="a" horiz-adv-x="1069" d="M84 309q0 172 139 254q88 51 297 86q213 35 213 127q0 113 -182 113q-201 0 -201 -149l-217 -1q37 334 428 334q188 0 278 -61q109 -73 109 -250v-522q0 -170 35 -240h-203q-28 21 -40.5 42.5t-12.5 53.5q-57 -54 -126 -82q-64 -26 -155 -26q-150 0 -253 84 q-109 90 -109 237zM328 324q0 -68 51 -105q45 -33 115 -33q126 0 186 66q58 62 57 188v13l-2 82q-80 -24 -183 -47q-224 -49 -224 -164z" />
<glyph unicode="b" horiz-adv-x="1120" d="M123 0v1446h221v-498q74 85 189 108q35 7 81 7q218 0 338 -168q107 -148 107 -375q0 -226 -107 -375q-121 -168 -338 -168q-167 0 -270 115v-92h-221zM344 520q0 -332 231 -332q132 0 196 105q54 87 54 227t-54 227q-65 105 -196 105q-231 0 -231 -332z" />
<glyph unicode="c" horiz-adv-x="1063" d="M61 526q0 230 130 383q138 162 364 162q307 0 434 -301l-203 -96q-66 184 -237 184q-121 0 -192 -107q-62 -93 -62 -221q0 -138 59 -229q69 -108 199 -108q161 0 238 180l196 -107q-130 -295 -438 -295q-230 0 -364 166q-124 154 -124 389z" />
<glyph unicode="d" horiz-adv-x="1120" d="M63 520q0 226 106 375q120 168 337 168q168 0 270 -115v498h221v-1446h-221v92q-53 -59 -118 -87t-152 -28q-216 0 -337 169q-106 149 -106 374zM295 520q0 -140 54 -227q65 -105 196 -105q231 0 231 332t-231 332q-131 0 -196 -105q-54 -88 -54 -227z" />
<glyph unicode="e" horiz-adv-x="1075" d="M61 532q0 223 124 375q132 164 350 164q239 0 370 -189q115 -165 115 -415v-12h-719q12 -119 84 -191q75 -76 193 -76q159 0 251 154l185 -104q-175 -265 -451 -265q-233 0 -372 166q-130 155 -130 393zM301 647h460q-9 93 -68 156q-63 67 -154 67q-92 0 -160 -66 q-63 -63 -78 -157z" />
<glyph unicode="f" horiz-adv-x="573" d="M-4 858v184h164v146q0 204 174 258q57 18 133 18q60 0 106 -14v-184l-31 3l-24 1h-13q-65 0 -93 -29q-31 -32 -31 -127v-72h178v-184h-178v-858h-221v858h-164z" />
<glyph unicode="g" horiz-adv-x="1110" d="M61 567q0 212 109 349q119 147 326 147q81 0 148 -25.5t118 -79.5v84h221v-876q0 -181 -41 -262q-46 -90 -158.5 -142.5t-265.5 -52.5q-191 0 -303 82q-121 89 -121 227h256q15 -106 164 -106q120 0 177 36q71 44 71 156v72q-98 -104 -266 -104q-205 0 -325 148 q-110 136 -110 347zM295 571q0 -127 54 -203q62 -87 183 -87q230 0 230 290q0 142 -58.5 216.5t-171.5 74.5q-121 0 -183 -88q-54 -76 -54 -203z" />
<glyph unicode="h" horiz-adv-x="1104" d="M125 0v1446h221v-502q125 117 291 117q164 0 257 -101q89 -98 89 -264v-696h-221v655q0 205 -176 205q-103 0 -171.5 -69.5t-68.5 -172.5v-618h-221z" />
<glyph unicode="i" horiz-adv-x="479" d="M127 0v1042h223v-1042h-223zM127 1196v250h223v-250h-223z" />
<glyph unicode="j" horiz-adv-x="487" d="M-61 -96l29 -3l34 -3q87 0 115 47q20 35 20 131v966h223v-1052q0 -130 -87.5 -204t-210.5 -74q-15 0 -31 1l-38 3q-16 1 -54 5v183zM137 1196v250h223v-250h-223z" />
<glyph unicode="k" horiz-adv-x="1038" d="M125 0v1446h221v-848l410 444h266l-373 -403l385 -639h-266l-281 485l-141 -151v-334h-221z" />
<glyph unicode="l" horiz-adv-x="479" d="M127 0v1446h223v-1446h-223z" />
<glyph unicode="m" horiz-adv-x="1659" d="M125 0v1042h221v-98q117 117 268 117q191 0 279 -152q66 74 147 113t170 39q160 0 247 -104q81 -97 81 -261v-696h-221v655q0 205 -162 205q-96 0 -157 -74q-58 -70 -58 -168v-618h-215v655q0 205 -162 205q-96 0 -158 -74q-59 -70 -59 -168v-618h-221z" />
<glyph unicode="n" horiz-adv-x="1104" d="M125 0v1042h221v-98q125 117 291 117q164 0 257 -101q89 -98 89 -264v-696h-221v655q0 205 -176 205q-103 0 -171.5 -69.5t-68.5 -172.5v-618h-221z" />
<glyph unicode="o" horiz-adv-x="1102" d="M61 522q0 235 126 387q134 162 364 162q231 0 365 -162q124 -151 124 -387q0 -235 -125 -387q-134 -164 -364 -164q-231 0 -365 163q-125 152 -125 388zM293 522q0 -138 59 -230q69 -108 199 -108t199 108q59 92 59 230q0 139 -58 230q-69 108 -200 108q-129 0 -199 -109 q-59 -93 -59 -229z" />
<glyph unicode="p" horiz-adv-x="1120" d="M123 -281v1323h221v-98q74 85 189 108q35 7 81 7q218 0 338 -168q107 -148 107 -375q0 -226 -107 -376q-121 -169 -338 -169q-165 0 -270 117v-369h-221zM344 516q0 -332 231 -332q132 0 196 105q54 87 54 227t-54 227q-65 105 -196 105q-231 0 -231 -332z" />
<glyph unicode="q" horiz-adv-x="1120" d="M63 516q0 226 106 375q120 168 337 168q168 0 270 -115v98h221v-1323h-221v369q-105 -117 -270 -117q-217 0 -337 169q-106 150 -106 376zM295 516q0 -141 53 -227q65 -105 197 -105q231 0 231 332t-231 332q-131 0 -196 -105q-54 -88 -54 -227z" />
<glyph unicode="r" horiz-adv-x="711" d="M125 0v1042h223v-151q51 88 123 131t153 43h11l25 -1q11 0 16 -2v-248h-16l-27 1h-16q-115 0 -192 -66q-77 -67 -77 -180v-569h-223z" />
<glyph unicode="s" horiz-adv-x="1057" d="M55 160l170 145q127 -127 297 -127q77 0 133 28q72 35 72 105q0 93 -231 125l-29 4q-174 24 -255 74q-116 71 -116 221q0 161 139 252q120 80 289 80q233 0 402 -158l-133 -143q-87 78 -200 101q-35 7 -75 7q-196 0 -196 -112q0 -79 211 -111q71 -11 130 -22 q293 -55 293 -297q0 -169 -135 -268q-121 -89 -297 -89q-302 0 -469 185z" />
<glyph unicode="t" horiz-adv-x="588" d="M-10 858v184h164v363h223v-363h192v-184h-192v-516q0 -98 29 -127q28 -29 93 -29h13l26 1l31 3v-190l-56 -10l-58 -4q-17 -1 -34 -1q-132 0 -199.5 66.5t-67.5 276.5v530h-164z" />
<glyph unicode="u" horiz-adv-x="1104" d="M121 344v698h221v-657q0 -205 178 -205q103 0 170.5 69t67.5 173v620h221v-1042h-221v96q-122 -116 -291 -116q-164 0 -257 101q-89 97 -89 263z" />
<glyph unicode="v" horiz-adv-x="920" d="M14 1042h232l182 -635q16 -59 29 -143l6 44q8 61 24 114l183 620h227l-326 -1042h-235z" />
<glyph unicode="w" horiz-adv-x="1466" d="M14 1042h230l191 -666l14 -81l4 24q20 118 28 135l150 588h196l191 -747q0 50 27 140l6 20l168 587h223l-320 -1042h-213l-166 641l-14 88q-11 -90 -27 -154l-145 -575h-217z" />
<glyph unicode="x" horiz-adv-x="958" d="M-6 0l350 549l-307 493h254l172 -293l16 -38l31 59l162 272h264l-328 -485l355 -557h-265l-195 341l-24 52l-20 -45q-8 -19 -13 -24l-188 -324h-264z" />
<glyph unicode="y" horiz-adv-x="920" d="M14 1042h236l196 -659l15 -81q5 43 13 76l10 43q3 9 10 34l163 587h236l-322 -1042q-47 -153 -99 -208q-68 -73 -210 -73h-147v193h127q104 0 104 84l-3 19l-7 30z" />
<glyph unicode="z" horiz-adv-x="979" d="M72 0v195l514 649h-498v198h789v-174l-531 -669h547v-199h-821z" />
<glyph unicode="{" d="M162 442v179l21 -2l22 -1q121 -6 179 59q52 59 52 202v247q0 159 32 224q44 91 179 115q66 12 182 12h45v-179l-47 2q-103 4 -144.5 -39.5t-41.5 -175.5v-241q0 -141 -35 -204q-43 -79 -168 -110q123 -29 168 -109q35 -65 35 -204v-240q0 -132 40 -175q43 -47 148 -42 l45 2v-176h-63q-188 0 -272 49q-68 40 -90 133q-13 53 -13 166v248q0 144 -52 203q-57 65 -179 59z" />
<glyph unicode="|" d="M424 -483v2048h178v-2048h-178z" />
<glyph unicode="}" d="M152 -238l45 -2q104 -5 147 42q39 42 39 175v240q0 139 36 204q45 79 169 109q-124 30 -169 110q-36 65 -36 204v241q0 132 -38 174q-42 46 -146 41l-47 -2v179h45q205 0 288 -50q57 -35 80 -95t23 -206v-247q0 -144 52 -202q57 -65 179 -59l21 1l22 2v-179l-43 2 q-121 6 -178 -59q-53 -60 -53 -203v-248q0 -117 -12 -167q-21 -90 -91 -132q-81 -49 -288 -49h-45v176z" />
<glyph unicode="~" horiz-adv-x="1706" d="M178 434v187q208 143 387 143q60 0 124 -12q76 -14 170 -48l42 -15q162 -58 250 -58q168 0 379 153v-184q-204 -141 -381 -141q-50 0 -92.5 8t-98.5 27l-76 26q-216 74 -319 74q-162 0 -385 -160z" />
<glyph unicode="&#xa2;" horiz-adv-x="1214" d="M152 705q0 217 106 362q115 158 324 180v113h108v-111q270 -25 387 -301l-200 -96q-59 153 -187 178v-653q113 16 189 174l196 -107q-108 -264 -385 -290v-113h-108v111q-216 23 -328 183q-102 144 -102 370zM385 709q0 -285 197 -328v649q-98 -24 -152 -124 q-45 -86 -45 -197z" />
<glyph unicode="&#xa3;" horiz-adv-x="1214" d="M16 211q0 94 87 161q94 72 208 66l66 -4l-43 80l-45 76h-250v141h170q-57 116 -57 242q0 196 133 322t331 126q220 0 342 -141q138 -160 138 -412h-242q0 141 -74 243q-62 85 -164 85q-101 0 -161 -73q-56 -68 -56 -171q0 -113 58 -221h348v-141h-273q71 -153 107 -254 q143 -115 225 -115q61 0 83 104q4 17 16 150h233q0 -223 -76 -354q-70 -121 -196 -121q-106 0 -291 147q-103 -172 -322 -172q-118 0 -201 58q-94 65 -94 178zM203 201q0 -64 96 -64q55 0 95 26q46 31 46 83v4q-52 29 -108 29q-45 0 -82 -17q-47 -21 -47 -61z" />
<glyph unicode="&#xa5;" horiz-adv-x="1214" d="M37 555v98h403l-82 148h-321v100h270l-270 498h254l317 -629l320 629h243l-270 -498h270v-100h-321l-82 -148h403v-98h-454v-555h-225v555h-455z" />
<glyph unicode="&#xa8;" d="M244 1165v213h205v-213h-205zM575 1165v213h205v-213h-205z" />
<glyph unicode="&#xa9;" horiz-adv-x="1706" d="M113 731q0 301 220 523q214 216 519 216q312 0 526 -215q215 -218 215 -524q0 -311 -213 -520q-225 -221 -528 -221q-149 0 -280 56q-286 122 -402 403q-57 136 -57 282zM223 731q0 -260 186 -444q189 -187 445 -187t449 189q182 178 182 442q0 263 -182.5 447 t-448.5 184q-265 0 -444 -182q-187 -191 -187 -449zM457 725q0 197 100 321q109 134 301 134q147 0 243 -77q105 -85 105 -200h-166q-19 154 -190 154q-114 0 -169 -113q-42 -85 -42 -213q0 -317 221 -317q164 0 189 168h165q0 -130 -107 -217q-101 -82 -253 -82 q-192 0 -298 127q-99 119 -99 315z" />
<glyph unicode="&#xab;" horiz-adv-x="1042" d="M86 522l256 426h215l-256 -426l256 -426h-215zM498 522l256 426h217l-258 -426l258 -426h-217z" />
<glyph unicode="&#xad;" horiz-adv-x="750" d="M76 424v194h598v-194h-598z" />
<glyph unicode="&#xae;" horiz-adv-x="1706" d="M113 731q0 222 126.5 412t331.5 274q131 53 281 53q312 0 530 -221q211 -214 211 -518q0 -315 -217 -524q-224 -217 -524 -217q-306 0 -522.5 220t-216.5 521zM223 731q0 -125 47 -239q97 -236 340 -341q116 -51 234 -51q266 0 456 185q185 180 185 436q0 269 -181 452 q-188 189 -450 189q-261 0 -441 -181q-190 -192 -190 -450zM551 330v829h319q351 0 351 -225q0 -190 -185 -229l185 -375h-199l-164 346h-129v-346h-178zM729 786h117q192 0 192 127q0 134 -200 134h-109v-261z" />
<glyph unicode="&#xb4;" d="M375 1145l174 252h237l-241 -252h-170z" />
<glyph unicode="&#xb8;" d="M264 -281l242 281h170l-174 -281h-238z" />
<glyph unicode="&#xbb;" horiz-adv-x="1042" d="M74 96l256 426l-256 426h215l256 -426l-256 -426h-215zM485 96l256 426l-256 426h215l258 -426l-258 -426h-215z" />
<glyph unicode="&#xc2;" horiz-adv-x="1262" d="M18 0l453 1446h295l467 -1446h-258l-70 227h-571l-66 -227h-250zM314 1553l182 252h270l182 -252h-186l-131 147l-131 -147h-186zM401 451h437l-211 730l-11 74q0 -32 -8 -71l-12 -58z" />
<glyph unicode="&#xc7;" horiz-adv-x="1360" d="M76 729q0 316 156 523q173 229 479 229q455 0 565 -445l-236 -65q-31 124 -115 200q-89 82 -212 82q-187 0 -290 -174q-87 -146 -87 -346q0 -211 85 -357q103 -177 300 -177q125 0 217 88q80 78 119 207l225 -99q-149 -430 -573 -430q-316 0 -484 231q-149 205 -149 533z M432 -281l242 281h170l-174 -281h-238z" />
<glyph unicode="&#xce;" horiz-adv-x="559" d="M-36 1553l182 252h270l182 -252h-186l-131 147l-131 -147h-186zM154 0v1446h252v-1446h-252z" />
<glyph unicode="&#xd6;" horiz-adv-x="1448" d="M76 721q0 323 160 530q176 228 489 228q311 0 487 -229q160 -208 160 -529t-160 -529q-175 -229 -487 -229t-489 229q-160 207 -160 529zM336 721q0 -216 85 -355q102 -169 304 -169q201 0 303 169q84 140 84 355q0 216 -84 355q-101 169 -303 169t-304 -169 q-85 -139 -85 -355zM457 1573v213h205v-213h-205zM788 1573v213h205v-213h-205z" />
<glyph unicode="&#xdb;" horiz-adv-x="1350" d="M131 508v938h246v-916q0 -331 297 -331t297 331v916h246v-938q0 -543 -543 -543t-543 543zM359 1553l182 252h270l182 -252h-186l-131 147l-131 -147h-186z" />
<glyph unicode="&#xdc;" horiz-adv-x="1350" d="M131 508v938h246v-916q0 -331 297 -331t297 331v916h246v-938q0 -543 -543 -543t-543 543zM408 1573v213h205v-213h-205zM739 1573v213h205v-213h-205z" />
<glyph unicode="&#xe2;" horiz-adv-x="1069" d="M84 309q0 172 139 254q88 51 297 86q213 35 213 127q0 113 -182 113q-201 0 -201 -149l-217 -1q37 334 428 334q188 0 278 -61q109 -73 109 -250v-522q0 -170 35 -240h-203q-28 21 -40.5 42.5t-12.5 53.5q-57 -54 -126 -82q-64 -26 -155 -26q-150 0 -253 84 q-109 90 -109 237zM248 1145l182 252h270l182 -252h-186l-131 147l-131 -147h-186zM328 324q0 -68 51 -105q45 -33 115 -33q125 0 185.5 65.5t57.5 201.5l-2 82q-80 -24 -183 -47q-224 -49 -224 -164z" />
<glyph unicode="&#xe7;" horiz-adv-x="1063" d="M61 526q0 230 130 383q138 162 364 162q307 0 434 -301l-203 -96q-66 184 -237 184q-121 0 -192 -107q-62 -93 -62 -221q0 -138 59 -229q69 -108 199 -108q161 0 238 180l196 -107q-130 -295 -438 -295q-230 0 -364 166q-124 154 -124 389zM284 -281l242 281h170 l-174 -281h-238z" />
<glyph unicode="&#xee;" horiz-adv-x="479" d="M-77 1145l182 252h270l182 -252h-186l-131 147l-131 -147h-186zM127 0v1042h223v-1042h-223z" />
<glyph unicode="&#xf6;" horiz-adv-x="1102" d="M61 522q0 235 126 387q134 162 364 162q231 0 365 -162q124 -151 124 -387q0 -235 -125 -387q-134 -164 -364 -164q-231 0 -365 163q-125 152 -125 388zM283 1165v213h205v-213h-205zM293 522q0 -138 59 -230q69 -108 199 -108t199 108q59 92 59 230q0 139 -58 230 q-69 108 -200 108q-129 0 -199 -109q-59 -93 -59 -229zM614 1165v213h205v-213h-205z" />
<glyph unicode="&#xfb;" horiz-adv-x="1104" d="M121 344v698h221v-657q0 -205 178 -205q103 0 170.5 69t67.5 173v620h221v-1042h-221v96q-122 -116 -291 -116q-164 0 -257 101q-89 97 -89 263zM236 1145l182 252h270l182 -252h-186l-131 147l-131 -147h-186z" />
<glyph unicode="&#xfc;" horiz-adv-x="1104" d="M121 344v698h221v-657q0 -205 178 -205q103 0 170.5 69t67.5 173v620h221v-1042h-221v96q-122 -116 -291 -116q-164 0 -257 101q-89 97 -89 263zM285 1165v213h205v-213h-205zM616 1165v213h205v-213h-205z" />
<glyph unicode="&#x11e;" horiz-adv-x="1446" d="M76 713q0 328 165 539q181 231 500 231q428 0 580 -414l-219 -96q-107 278 -363 278q-197 0 -308 -170q-95 -146 -95 -354q0 -220 94 -363q110 -167 318 -167q158 0 253 95.5t95 254.5v4h-334v229h563v-780h-227v106q-139 -143 -375 -143q-309 0 -485 226 q-162 206 -162 524zM432 1804l145 1q16 -111 146 -111q129 0 145 111l146 -1q0 -127 -84 -194q-76 -61 -207 -61t-207 61q-84 67 -84 194z" />
<glyph unicode="&#x11f;" horiz-adv-x="1110" d="M61 567q0 212 109 349q119 147 326 147q81 0 148 -25.5t118 -79.5v84h221v-876q0 -181 -41 -262q-46 -90 -158.5 -142.5t-265.5 -52.5q-191 0 -303 82q-121 89 -121 227h256q15 -106 164 -106q120 0 177 36q71 44 71 156v72q-98 -104 -266 -104q-205 0 -325 148 q-110 136 -110 347zM264 1396l145 1q16 -111 146 -111q129 0 145 111l146 -1q0 -127 -84 -194q-76 -61 -207 -61t-207 61q-84 67 -84 194zM295 571q0 -127 54 -203q62 -87 183 -87q230 0 230 290q0 142 -58.5 216.5t-171.5 74.5q-121 0 -183 -88q-54 -76 -54 -203z" />
<glyph unicode="&#x130;" horiz-adv-x="559" d="M154 0v1446h252v-1446h-252zM170 1565v232h222v-232h-222z" />
<glyph unicode="&#x131;" horiz-adv-x="479" d="M127 0v1042h223v-1042h-223z" />
<glyph unicode="&#x15e;" horiz-adv-x="1298" d="M55 246l209 164q155 -213 385 -213q114 0 197 46q102 57 102 163q0 145 -332 214l-92 19q-214 44 -315 142q-98 95 -98 255q0 213 156 334q143 111 362 111q364 0 555 -258l-191 -148q-123 182 -360 182q-106 0 -177 -38q-91 -48 -91 -144q0 -147 338 -213l51 -10 q244 -48 349 -145q107 -100 107 -277q0 -225 -172 -354q-154 -115 -387 -115q-415 0 -596 285zM401 -281l242 281h170l-174 -281h-238z" />
<glyph unicode="&#x15f;" horiz-adv-x="1057" d="M55 160l170 145q127 -127 297 -127q77 0 133 28q72 35 72 105q0 93 -231 125l-29 4q-174 24 -255 74q-116 71 -116 221q0 161 139 252q120 80 289 80q233 0 402 -158l-133 -143q-87 78 -200 101q-35 7 -75 7q-196 0 -196 -112q0 -79 211 -111q71 -11 130 -22 q293 -55 293 -297q0 -169 -135 -268q-121 -89 -297 -89q-302 0 -469 185zM280 -281l242 281h170l-174 -281h-238z" />
<glyph unicode="&#x2c6;" d="M195 1145l182 252h270l182 -252h-186l-131 147l-131 -147h-186z" />
<glyph unicode="&#x2da;" d="M332 1305q0 75 52.5 127.5t127.5 52.5q76 0 128 -52t52 -128q0 -75 -52.5 -128t-127.5 -53q-74 0 -127 53.5t-53 127.5zM432 1305q0 -32 24 -56t56 -24q34 0 57 23t23 57t-23 56.5t-57 22.5q-33 0 -56.5 -23t-23.5 -56z" />
<glyph unicode="&#x2dc;" d="M201 1184q-5 95 37 156q38 55 106 55q44 0 134 -37t128 -37q62 0 62 74h153l2 -35q5 -94 -38 -157q-38 -56 -107 -56q-46 0 -134 37t-128 37q-62 0 -62 -74h-151z" />
<glyph unicode="&#x2000;" horiz-adv-x="902" />
<glyph unicode="&#x2001;" horiz-adv-x="1805" />
<glyph unicode="&#x2002;" horiz-adv-x="902" />
<glyph unicode="&#x2003;" horiz-adv-x="1805" />
<glyph unicode="&#x2004;" horiz-adv-x="601" />
<glyph unicode="&#x2005;" horiz-adv-x="451" />
<glyph unicode="&#x2006;" horiz-adv-x="300" />
<glyph unicode="&#x2007;" horiz-adv-x="300" />
<glyph unicode="&#x2008;" horiz-adv-x="225" />
<glyph unicode="&#x2009;" horiz-adv-x="361" />
<glyph unicode="&#x200a;" horiz-adv-x="100" />
<glyph unicode="&#x2010;" horiz-adv-x="750" d="M76 424v194h598v-194h-598z" />
<glyph unicode="&#x2011;" horiz-adv-x="750" d="M76 424v194h598v-194h-598z" />
<glyph unicode="&#x2012;" horiz-adv-x="750" d="M76 424v194h598v-194h-598z" />
<glyph unicode="&#x2013;" d="M0 446v150h1024v-150h-1024z" />
<glyph unicode="&#x2014;" horiz-adv-x="2048" d="M0 446v150h2048v-150h-2048z" />
<glyph unicode="&#x2018;" horiz-adv-x="633" d="M174 913v158q0 134 42 227t142 181l88 -70q-116 -114 -116 -215h125v-281h-281z" />
<glyph unicode="&#x2019;" horiz-adv-x="633" d="M176 1165v281h281v-158q0 -134 -42 -227.5t-143 -179.5l-88 69q83 82 109 162q8 27 8 53h-125z" />
<glyph unicode="&#x201a;" horiz-adv-x="633" d="M176 0v281h281v-158q0 -134 -42 -228t-143 -180l-88 68q117 117 117 217h-125z" />
<glyph unicode="&#x201c;" horiz-adv-x="1055" d="M176 913v158q0 133 41.5 227t140.5 181l91 -70q-117 -111 -117 -215h125v-281h-281zM600 913v158q0 134 42 227t142 181l88 -70q-116 -114 -116 -215h125v-281h-281z" />
<glyph unicode="&#x201d;" horiz-adv-x="1055" d="M172 1165v281h283v-158q0 -134 -42 -227.5t-143 -179.5l-88 69q83 82 109 162q8 27 8 53h-127zM598 1165v281h281v-158q0 -134 -42 -227.5t-143 -179.5l-88 69q83 82 109 162q8 27 8 53h-125z" />
<glyph unicode="&#x201e;" horiz-adv-x="1055" d="M172 0v281h283v-158q0 -134 -42 -228t-143 -180l-88 68q87 87 110 163q7 25 7 54h-127zM598 0v281h281v-158q0 -134 -42 -228t-143 -180l-88 68q116 112 116 217h-124z" />
<glyph unicode="&#x2026;" horiz-adv-x="2048" d="M215 0v250h256v-250h-256zM897 0v250h256v-250h-256zM1581 0v250h256v-250h-256z" />
<glyph unicode="&#x202f;" horiz-adv-x="361" />
<glyph unicode="&#x2039;" horiz-adv-x="631" d="M84 522l258 426h215l-256 -426l256 -426h-215z" />
<glyph unicode="&#x203a;" horiz-adv-x="631" d="M74 96l256 426l-256 426h215l256 -426l-256 -426h-215z" />
<glyph unicode="&#x205f;" horiz-adv-x="451" />
<glyph unicode="&#x2122;" horiz-adv-x="1706" d="M225 1366v94h467v-94h-168v-448h-129v448h-170zM809 918v542h170l141 -360l133 360h170v-542h-114v428l-160 -428h-59l-166 428v-428h-115z" />
<glyph unicode="&#x25fc;" horiz-adv-x="1040" d="M0 0v1040h1040v-1040h-1040z" />
</font>
</defs>
</svg>
