<?xml version="1.0" encoding="UTF-8" standalone="no"?>
<!DOCTYPE svg  PUBLIC '-//W3C//DTD SVG 1.1//EN'  'http://www.w3.org/Graphics/SVG/1.1/DTD/svg11.dtd'>
<svg xmlns="http://www.w3.org/2000/svg">
<defs>
<font id="PoetsenOne-Regular" horiz-adv-x="619">
<font-face underline-position="-50" font-weight="400" descent="-200" panose-1="2 1 8 3 3 0 0 13 2 3" units-per-em="1000" unicode-range="U+000D-FB04" bbox="-174 -200 1197 1000" x-height="550" underline-thickness="50" font-family="PoetsenOne" ascent="800" cap-height="710"/>
<missing-glyph d="M176 -72h229l66 959h-228q-43 -634 -67 -959zM119 1000h415q84 0 84 -85q0 -27 -20.5 -324t-29.5 -413q-23 -293 -23 -348q0 -15 -16 -15h-418q-81 0 -81 85q0 27 20.5 324t29.5 413q23 293 23 348q0 15 16 15z" horiz-adv-x="648"/>
<glyph glyph-name="f_f" horiz-adv-x="755" unicode="ff" d="M349 591q-71 0 -89 -110h138l4 40q0 70 -53 70zM612 346h-61q-4 -50 -10.5 -132t-11 -137t-4.5 -57q-1 -12 -5 -16t-17 -4h-36q-53 0 -75 24.5t-22 77.5q0 12 17 244h-139q-4 -50 -10.5 -132t-11 -137t-4.5 -57q-1 -12 -5 -16t-17 -4h-36q-56 0 -76.5 20t-20.5 82 q10 131 18 244h-48q-11 0 -11 11l3 54q1 20 5 33t19.5 24.5t42.5 12.5q0 8 1 11q11 122 79 177.5t173 55.5q75 0 128 -23q56 48 162 48q96 0 140.5 -32t44.5 -87q0 -96 -120 -96q-16 0 -21 2.5t-5 11.5q0 38 -7 54.5t-32 16.5q-64 0 -78 -139h115q16 0 16 -14l-4 -54 q-3 -34 -18.5 -50.5t-57.5 -16.5z"/>
<glyph glyph-name="f_i" horiz-adv-x="577" unicode="fi" d="M490 0h-36q-58 0 -80 23t-22 72q0 15 17 251h-121q-4 -50 -10.5 -132t-11 -137t-4.5 -57q-1 -12 -5 -16t-17 -4h-36q-56 0 -76.5 20t-20.5 82q9 128 18 244h-48q-11 0 -11 11l3 54q1 20 5 33t19 24.5t42 12.5l4 40q12 125 76.5 179t180.5 54q105 0 155 -34t50 -89 q0 -96 -120 -96q-15 0 -20.5 2.5t-5.5 11.5q0 38 -11 54.5t-48 16.5q-32 0 -53 -21.5t-29.5 -49t-14.5 -68.5h181q56 0 77.5 -23t21.5 -68q0 -33 -27 -370q-1 -12 -5 -16t-17 -4z"/>
<glyph glyph-name="f_l" horiz-adv-x="614" unicode="fl" d="M469 -9q-116 0 -116 124q0 1 3.5 40.5t8 98.5t9 122t8 120t3.5 84q0 22 -7.5 31t-27.5 9q-44 0 -63 -35t-28 -104h44q16 0 16 -14l-4 -54q-2 -31 -19.5 -49t-47.5 -18q-14 -184 -24 -298q-2 -26 -2 -28q-1 -12 -5 -16t-17 -4h-36q-56 0 -76.5 20t-20.5 82q9 128 18 244 h-48q-11 0 -11 11l3 54q1 20 5 33t19 24.5t42 12.5l4 40q13 129 75.5 181t189.5 52q110 0 150 -34.5t40 -114.5q0 -46 -14.5 -210t-14.5 -211q0 -28 9.5 -43t20.5 -17t20.5 -4.5t9.5 -7.5q0 -121 -116 -121z"/>
<glyph glyph-name="f_f_i" horiz-adv-x="880" unicode="ffi" d="M349 591q-71 0 -89 -110h138l4 40q0 70 -53 70zM793 0h-36q-58 0 -80 23t-22 72q0 15 17 251h-121q-4 -50 -10.5 -132t-11 -137t-4.5 -57q-1 -12 -5 -16t-17 -4h-36q-56 0 -76.5 20t-20.5 82q9 128 18 244h-140q-4 -50 -10.5 -132t-11 -137t-4.5 -57q-1 -12 -5 -16 t-17 -4h-36q-56 0 -76.5 20t-20.5 82q10 131 18 244h-48q-11 0 -11 11l3 54q1 20 5 33t19.5 24.5t42.5 12.5q0 8 1 11q11 122 79 177.5t173 55.5q80 0 130 -25q63 54 180 54q105 0 155 -34t50 -89q0 -96 -120 -96q-16 0 -21 2.5t-5 11.5q0 38 -11 54.5t-48 16.5 q-32 0 -53 -21.5t-29.5 -49t-14.5 -68.5h181q56 0 77.5 -23t21.5 -68q0 -33 -27 -370q-1 -12 -5 -16t-17 -4z"/>
<glyph glyph-name="f_f_l" horiz-adv-x="917" unicode="ffl" d="M349 591q-71 0 -89 -110h138l4 40q0 70 -53 70zM772 -9q-116 0 -116 124q0 1 3.5 40.5t8 98.5t9 122t8 120t3.5 84q0 22 -7.5 31t-27.5 9q-44 0 -63 -35t-28 -104h44q16 0 16 -14l-4 -54q-2 -31 -19.5 -49t-47.5 -18q-14 -184 -24 -298q-2 -26 -2 -28q-1 -12 -5 -16 t-17 -4h-36q-56 0 -76.5 20t-20.5 82q9 128 18 244h-140q-4 -50 -10.5 -132t-11 -137t-4.5 -57q-1 -12 -5 -16t-17 -4h-36q-56 0 -76.5 20t-20.5 82q10 131 18 244h-48q-11 0 -11 11l3 54q1 20 5 33t19.5 24.5t42.5 12.5q0 8 1 11q11 122 79 177.5t173 55.5q75 0 128 -23 q60 52 190 52q110 0 150 -34.5t40 -114.5q0 -46 -14.5 -210t-14.5 -211q0 -28 9.5 -43t20.5 -17t20.5 -4.5t9.5 -7.5q0 -121 -116 -121z"/>
<glyph glyph-name="f_b" horiz-adv-x="929" unicode="fb" d="M646 427q-26 0 -46 -13t-31 -31.5t-17.5 -44t-8 -45.5t-1.5 -41q0 -68 18.5 -98.5t56.5 -30.5q34 0 57 21.5t32.5 56t12.5 60t3 50.5q0 59 -18 87.5t-58 28.5zM569 606q0 -22 -9 -134q26 46 60 67t86 21q91 0 139.5 -60.5t48.5 -178.5q0 -43 -6 -83t-25.5 -87t-50.5 -81 t-85.5 -57t-126.5 -23q-58 0 -101.5 15.5t-66.5 37t-37 52.5t-17.5 55t-3.5 51q0 40 13 184t13 188q0 17 -2 25.5t-10.5 15t-24.5 6.5q-49 0 -71.5 -35.5t-32.5 -103.5h44q16 0 16 -14l-4 -54q-2 -31 -19.5 -49t-47.5 -18q-14 -184 -24 -298q-2 -26 -2 -28q-1 -12 -5 -16 t-17 -4h-36q-56 0 -76.5 20t-20.5 82q9 128 18 244h-48q-11 0 -11 11l3 54q1 20 5 33t19 24.5t42 12.5l4 40q13 129 79.5 181t200.5 52q110 0 150 -34.5t40 -113.5z"/>
<glyph glyph-name="f_f_b" horiz-adv-x="1232" unicode="ffb" d="M349 591q-71 0 -89 -110h138l4 40q0 70 -53 70zM949 427q-26 0 -46 -13t-31 -31.5t-17.5 -44t-8 -45.5t-1.5 -41q0 -68 18.5 -98.5t56.5 -30.5q34 0 57 21.5t32.5 56t12.5 60t3 50.5q0 59 -18 87.5t-58 28.5zM388 346h-140q-4 -50 -10.5 -132t-11 -137t-4.5 -57 q-1 -12 -5 -16t-17 -4h-36q-56 0 -76.5 20t-20.5 82q10 131 18 244h-48q-11 0 -11 11l3 54q1 20 5 33t19.5 24.5t42.5 12.5q0 8 1 11q11 122 79 177.5t173 55.5q80 0 130 -25q65 54 203 54q110 0 150 -34.5t40 -113.5q0 -23 -9 -134q26 46 60 67t86 21q91 0 139.5 -60.5 t48.5 -178.5q0 -43 -6 -83t-25.5 -87t-50.5 -81t-85.5 -57t-126.5 -23q-58 0 -101.5 15.5t-66.5 37t-37 52.5t-17.5 55t-3.5 51q0 40 13 184t13 188q0 17 -2 25.5t-10.5 15t-24.5 6.5q-49 0 -71.5 -35.5t-32.5 -103.5h44q16 0 16 -14l-4 -54q-2 -31 -19.5 -49t-47.5 -18 q-14 -184 -24 -298q-2 -26 -2 -28q-1 -12 -5 -16t-17 -4h-36q-56 0 -76.5 20t-20.5 82q9 128 18 244z"/>
<glyph glyph-name=".notdef" d="M176 -72h229l66 959h-228q-43 -634 -67 -959zM119 1000h415q84 0 84 -85q0 -27 -20.5 -324t-29.5 -413q-23 -293 -23 -348q0 -15 -16 -15h-418q-81 0 -81 85q0 27 20.5 324t29.5 413q23 293 23 348q0 15 16 15z" horiz-adv-x="648"/>
<glyph glyph-name=".null" horiz-adv-x="0"/>
<glyph glyph-name="nonmarkingreturn" horiz-adv-x="333"/>
<glyph glyph-name="NULL" horiz-adv-x="0"/>
<glyph glyph-name="NULL" horiz-adv-x="0"/>
<glyph glyph-name="CR" horiz-adv-x="309" unicode=""/>
<glyph glyph-name="space" horiz-adv-x="215" unicode=" "/>
<glyph glyph-name="exclam" horiz-adv-x="295" unicode="!" d="M185 248h-36q-47 0 -64.5 23t-17.5 75q0 16 2 40t9 113.5t15 211.5q1 22 5 26q3 3 16 3h59q51 0 76.5 -20.5t25.5 -51.5q0 -20 -4.5 -56t-14 -88.5t-16.5 -88t-19 -96t-14 -71.5q-2 -12 -6.5 -16t-15.5 -4zM127 178q78 0 78 -78q0 -42 -22 -76t-77 -34q-77 0 -77 82 q0 45 23 75.5t75 30.5z"/>
<glyph glyph-name="quotedbl" horiz-adv-x="416" unicode='&quot;' d="M351 454h-50q-26 0 -35.5 12.5t-9.5 40.5q0 9 1 25.5t5.5 71.5t8.5 120q1 12 2.5 14t9.5 2h62q28 0 42 -11t14 -28q0 -46 -38 -236q-2 -11 -12 -11zM156 454h-50q-26 0 -35.5 12.5t-9.5 40.5q0 9 1 25.5t5.5 71.5t8.5 120q1 12 2.5 14t9.5 2h62q28 0 42 -11t14 -28 q0 -46 -38 -236q-2 -11 -12 -11z"/>
<glyph glyph-name="numbersign" horiz-adv-x="690" unicode="#" d="M291 409l-15 -118h119q6 52 15 118h-119zM470 0q-59 0 -78.5 22.5t-19.5 72.5l9 85h-119l-20 -160q-3 -20 -22 -20q-59 0 -78.5 22.5t-19.5 72.5l9 85h-99q-11 0 -11 11q0 43 18.5 71.5t59.5 28.5h46q6 52 15 118h-96q-11 0 -11 11q0 100 78 100h42q4 30 11.5 91t8.5 70 q3 29 26 29q55 0 76.5 -20.5t21.5 -62.5q0 -3 -13 -107h119q4 30 11.5 91t8.5 70q3 29 26 29q55 0 76.5 -20.5t21.5 -62.5q0 -3 -13 -107h104q16 0 16 -14l-3 -30q-3 -33 -20.5 -50t-59.5 -17h-50l-15 -118h100q16 0 16 -14l-3 -30q-3 -33 -20.5 -50t-59.5 -17h-47l-20 -160 q-3 -20 -22 -20z"/>
<glyph glyph-name="dollar" horiz-adv-x="528" unicode="$" d="M48 483q0 100 57.5 157t146.5 74q1 9 2 26.5t2 27.5t3.5 21t7.5 16.5t13 5.5q48 0 66.5 -23t18.5 -71q68 -10 103.5 -48.5t35.5 -96.5q0 -55 -31 -85t-89 -30q-18 0 -23 3.5t-5 14.5q0 93 -64 93q-33 0 -57.5 -20t-24.5 -50q0 -22 15.5 -39t40 -28.5t54.5 -24t59.5 -29 t54 -38.5t40 -57.5t15.5 -81.5q0 -82 -47.5 -138.5t-136.5 -68.5l-8 -77q-2 -12 -6 -16t-16 -4q-47 0 -64.5 23.5t-17.5 75.5q-72 12 -120.5 44t-48.5 61q0 67 8 95.5t27 28.5q14 0 38 -19.5t59 -39t76 -19.5q75 0 75 51q0 23 -19 40t-48 27t-62.5 26.5t-62.5 37t-48 60.5 t-19 95z"/>
<glyph glyph-name="percent" horiz-adv-x="781" unicode="%" d="M605 234q-57 0 -57 -95q0 -64 39 -64q29 0 41 34t12 69q0 56 -35 56zM615 319q129 0 129 -137q0 -24 -3.5 -47.5t-14.5 -50.5t-28.5 -47t-48.5 -33.5t-71 -13.5q-134 0 -134 143q0 51 14.5 90.5t54.5 67.5t102 28zM204 635q-57 0 -57 -95q0 -64 39 -64q29 0 41 34t12 69 q0 56 -35 56zM214 720q129 0 129 -137q0 -24 -3.5 -47.5t-14.5 -50.5t-28.5 -47t-48.5 -33.5t-71 -13.5q-134 0 -134 143q0 51 14.5 90.5t54.5 67.5t102 28zM179 -13q-23 0 -29 8t-6 29q0 19 21 58q17 32 372 599q12 19 24 24t31 5q26 0 33 -8.5t7 -28.5q0 -18 -19 -54 q-11 -21 -382 -612q-13 -20 -52 -20z"/>
<glyph glyph-name="ampersand" horiz-adv-x="679" unicode="&amp;" d="M210 221q0 -36 24 -60.5t65 -24.5q103 0 124 168h-131q-38 0 -60 -24t-22 -59zM336 573q-40 0 -62.5 -27t-22.5 -62q0 -31 19 -51t54 -20h332q15 0 17 -14l-2 -42q-2 -31 -18.5 -42t-67.5 -11q-12 -158 -94 -236t-222 -78q-121 0 -182.5 52.5t-61.5 149.5q0 134 126 193 q-65 49 -65 132q0 84 72 144t199 60q99 0 146 -37.5t47 -97.5q0 -101 -129 -101q-10 0 -12.5 1.5t-5.5 10.5q-6 76 -67 76z"/>
<glyph glyph-name="quotesingle" horiz-adv-x="221" unicode="&apos;" d="M156 454h-50q-26 0 -35.5 12.5t-9.5 40.5q0 9 1 25.5t5.5 71.5t8.5 120q1 12 2.5 14t9.5 2h62q28 0 42 -11t14 -28q0 -46 -38 -236q-2 -11 -12 -11z"/>
<glyph glyph-name="parenleft" horiz-adv-x="410" unicode="(" d="M324 581q-59 0 -93 -108t-34 -294q0 -111 14.5 -160t50.5 -49q12 0 30 6t22 6q17 0 17 -45q0 -123 -104 -123q-197 0 -197 375q0 254 83 400.5t221 146.5q54 0 74 -14t20 -45q0 -16 -13 -62.5t-25 -46.5q-4 0 -27.5 6.5t-38.5 6.5z"/>
<glyph glyph-name="parenright" horiz-adv-x="419" unicode=")" d="M80 -31q59 0 93 108t34 294q0 111 -14.5 160t-50.5 49q-12 0 -30 -6t-22 -6q-17 0 -17 45q0 123 104 123q207 0 207 -375q0 -253 -87.5 -400t-226.5 -147q-54 0 -74 14t-20 45q0 16 13 62.5t25 46.5q4 0 27.5 -6.5t38.5 -6.5z"/>
<glyph glyph-name="asterisk" horiz-adv-x="464" unicode="*" d="M294 521q10 -12 30.5 -34t28 -34t7.5 -24q0 -24 -31 -53t-62 -29q-10 0 -17 3.5t-11 11.5t-6.5 16.5t-3.5 23t-1 26v31t-1 32.5q-8 -12 -19.5 -31.5t-17 -28.5t-14.5 -19.5t-18 -14.5t-21 -4q-29 0 -56.5 22.5t-27.5 44.5q0 10 6.5 19t21.5 17.5t27 14.5t36.5 16t36.5 15 q-16 4 -38.5 8.5t-31 7t-21 7t-16.5 9.5t-7 13.5t-3 21.5q0 39 20 64t41 25q8 0 16.5 -4.5t18.5 -15t17.5 -19.5t21 -26.5t22.5 -27.5q-7 30 -7 69q0 76 85 76q57 0 57 -37q0 -11 -6 -25t-12 -23.5t-22.5 -33.5t-25.5 -38q20 8 43 19t36.5 17t22.5 6q22 0 40.5 -25.5 t18.5 -59.5q0 -50 -49 -50q-12 0 -27.5 3t-39 9t-41.5 9z"/>
<glyph glyph-name="plus" horiz-adv-x="481" unicode="+" d="M266 103q-58 0 -79.5 23t-21.5 72q0 23 5 78h-133q-11 0 -11 11q0 7 2 41q2 32 16 51t56 19h80q9 111 11 144q1 21 4.5 25t18.5 4q58 0 80 -22.5t22 -68.5q0 -26 -5 -82h131q16 0 16 -14l-3 -41q-3 -34 -18.5 -50.5t-57.5 -16.5h-79l-12 -153q-1 -12 -5 -16t-17 -4z"/>
<glyph glyph-name="comma" horiz-adv-x="259" unicode="," d="M95 -10q-74 0 -74 69q0 119 106 119q75 0 75 -107q0 -98 -40 -177t-96 -79q-47 0 -47 61q0 5 18.5 21.5t37.5 41.5t20 51z"/>
<glyph glyph-name="hyphen" horiz-adv-x="462" unicode="-" d="M331 209h-272q-11 0 -11 11l3 54q2 32 16 51t56 19h272q16 0 16 -14l-4 -54q-3 -34 -18.5 -50.5t-57.5 -16.5z"/>
<glyph glyph-name="period" horiz-adv-x="251" unicode="." d="M120 178q78 0 78 -78q0 -25 -6.5 -47.5t-30 -42.5t-61.5 -20q-78 0 -78 82q0 45 23 75.5t75 30.5z"/>
<glyph glyph-name="slash" horiz-adv-x="329" unicode="/" d="M84 -10q-22 0 -34.5 2.5t-23 14t-10.5 34.5q0 36 32 143.5t156 496.5q6 19 14.5 24t23.5 5q47 0 61.5 -12t14.5 -39q0 -38 -28.5 -134t-155.5 -497q-9 -26 -18 -32t-32 -6z"/>
<glyph glyph-name="zero" horiz-adv-x="658" unicode="0" d="M357 566q-40 0 -67.5 -26t-39.5 -68t-16.5 -78t-4.5 -73q0 -175 87 -175q35 0 60 28.5t37 73t17 84t5 76.5q0 158 -78 158zM378 721q127 0 185 -78t58 -227q0 -54 -7 -106t-28.5 -112.5t-55.5 -104.5t-94 -73.5t-139 -29.5q-254 0 -254 317q0 83 17.5 153.5t54.5 131 t104.5 95t158.5 34.5z"/>
<glyph glyph-name="one" horiz-adv-x="385" unicode="1" d="M117 676q9 5 23 14t23 14.5t10 5.5h60q103 0 103 -84q0 -37 -19 -309t-22 -302q-1 -15 -16 -15h-55q-58 0 -81 23.5t-23 76.5q0 24 32 434q-19 -22 -48 -22q-35 0 -56.5 31.5t-21.5 62.5q0 10 14 20.5t77 49.5z"/>
<glyph glyph-name="two" horiz-adv-x="579" unicode="2" d="M547 533q0 -40 -12 -79.5t-36 -75t-46.5 -65t-57.5 -60t-54.5 -47t-51 -40t-34.5 -26.5h254q16 0 16 -14l-4 -59q-3 -34 -18.5 -50.5t-57.5 -16.5h-328q-50 0 -71 16.5t-21 56.5v60q0 11 7 23q12 22 67.5 68t112.5 90.5t104 100.5t47 98q0 27 -18 43.5t-54 16.5 q-70 0 -85 -132q-2 -11 -7 -14.5t-25 -3.5q-111 0 -111 107q0 65 39.5 110t95.5 63t122 18q122 0 174.5 -56t52.5 -132z"/>
<glyph glyph-name="three" horiz-adv-x="565" unicode="3" d="M288 573q-63 0 -82 -46q-3 -9 -5.5 -10.5t-12.5 -1.5q-110 0 -110 77q0 58 64.5 93.5t163.5 35.5q61 0 105 -15t67.5 -41t33.5 -55.5t10 -65.5q0 -101 -92 -159q90 -43 90 -134q0 -44 -17.5 -87.5t-53.5 -83.5t-101.5 -65t-149.5 -25q-97 0 -142.5 33t-45.5 87 q0 47 32 70.5t89 23.5q9 0 13 -1.5t4.5 -2.5t1.5 -8q12 -46 79 -46q56 0 80.5 32t24.5 66q0 29 -19.5 46t-44.5 18l-143 6q-16 0 -16 14l3 28q3 33 19 49t58 18l90 4q33 2 52.5 23t19.5 58q0 65 -65 65z"/>
<glyph glyph-name="four" horiz-adv-x="599" unicode="4" d="M339 192h-233q-86 0 -86 59q0 9 2 20t7 30.5t10.5 38t16 56.5t20.5 72q40 145 40 201q0 41 16 41h45q56 0 78 -20t22 -68q0 -52 -61 -292h134q19 228 22 280q1 23 2 54q1 33 3.5 39.5t14.5 6.5h55q60 0 80.5 -22.5t20.5 -72.5q0 -59 -17.5 -310t-21.5 -290 q-1 -15 -16 -15h-55q-104 0 -104 85q0 22 5 107z"/>
<glyph glyph-name="five" horiz-adv-x="561" unicode="5" d="M240 -10q-90 0 -155 33t-65 93q0 41 32 64.5t89 23.5q14 0 18 -12q11 -46 87 -46q55 0 81 34.5t26 79.5q0 34 -15.5 57t-50.5 23q-42 0 -54 -37q-4 -16 -15 -16h-55q-55 0 -75 18.5t-20 58.5q0 72 37 331q1 15 17 15h382q16 0 16 -14l-4 -59q-3 -34 -18.5 -50.5 t-57.5 -16.5h-181l-21 -152q30 28 99 28q86 0 136.5 -54t50.5 -141q0 -49 -16.5 -94t-49.5 -83t-89.5 -61t-128.5 -23z"/>
<glyph glyph-name="six" horiz-adv-x="616" unicode="6" d="M325 336q-47 0 -69.5 -37t-22.5 -79q0 -34 15.5 -54t44.5 -20q50 0 74.5 40.5t24.5 83.5q0 66 -67 66zM361 566q-36 0 -62.5 -18.5t-40 -47.5t-19.5 -57t-6 -54q0 -14 4 -19l7 9q7 9 14 17.5t21 20t29.5 19.5t38.5 14t49 6q77 0 129.5 -46t52.5 -145q0 -119 -78.5 -197 t-219.5 -78q-71 0 -119.5 23t-73 66.5t-34.5 93t-10 116.5q0 90 17.5 165t54.5 136.5t102.5 96t154.5 34.5q101 0 151.5 -32.5t50.5 -87.5q0 -93 -122 -93q-17 0 -17 12q0 46 -74 46z"/>
<glyph glyph-name="seven" horiz-adv-x="492" unicode="7" d="M211 15q-7 -15 -21 -15h-36q-51 0 -82 16.5t-31 47.5q0 19 17 54t76 144q78 143 160 308h-238q-8 0 -9.5 2.5t-1.5 11.5l3 56q2 32 16 51t56 19h372q16 0 16 -14l-4 -54q-2 -23 -12 -43q-30 -60 -71 -142.5t-56.5 -113.5t-40 -81t-34 -70t-25.5 -54.5t-27 -60t-27 -62.5z "/>
<glyph glyph-name="eight" horiz-adv-x="603" unicode="8" d="M329 579q-39 0 -55.5 -30.5t-16.5 -64.5q0 -60 52 -60q41 0 58 31t17 68q0 25 -14 40.5t-41 15.5zM311 332q-27 0 -46 -11.5t-27.5 -30.5t-11.5 -35t-3 -33q0 -76 62 -76q32 0 52.5 22.5t26 47t5.5 49.5q0 67 -58 67zM560 258q0 -44 -16.5 -88.5t-49.5 -86t-92 -67.5 t-134 -26q-111 0 -173.5 54t-62.5 141q0 114 107 184q-30 13 -48.5 45t-18.5 81q0 41 14.5 79t44.5 71.5t82.5 53.5t121.5 20q114 0 166 -50.5t52 -128.5q0 -92 -80 -145q87 -43 87 -137z"/>
<glyph glyph-name="nine" horiz-adv-x="608" unicode="9" d="M296 385q45 0 65.5 33.5t20.5 71.5q0 34 -18 54.5t-48 20.5q-43 0 -63 -36.5t-20 -75.5q0 -68 63 -68zM229 145q44 0 77.5 19.5t51 49.5t26 60t8.5 58q0 14 -4 19q-1 -1 -6.5 -8.5t-11.5 -14t-15.5 -16.5t-22 -17.5t-27.5 -14.5t-35 -11t-42 -4q-75 0 -128 46t-53 145 q0 115 73.5 190t207.5 75q72 0 122 -23.5t75.5 -67t36 -92.5t10.5 -113q0 -91 -19.5 -167t-60 -137.5t-110 -96t-163.5 -34.5q-92 0 -135 32t-43 87q0 94 122 94q11 0 13 -1.5t4 -10.5q5 -28 14 -37t35 -9z"/>
<glyph glyph-name="colon" horiz-adv-x="279" unicode=":" d="M156 474q78 0 78 -78q0 -25 -6.5 -47.5t-30 -42.5t-61.5 -20q-78 0 -78 82q0 45 23 75.5t75 30.5zM131 178q78 0 78 -78q0 -25 -6.5 -47.5t-30 -42.5t-61.5 -20q-78 0 -78 82q0 45 23 75.5t75 30.5z"/>
<glyph glyph-name="semicolon" horiz-adv-x="283" unicode=";" d="M108 -10q-74 0 -74 69q0 119 106 119q75 0 75 -107q0 -98 -40 -177t-96 -79q-47 0 -47 61q0 5 18.5 21.5t37.5 41.5t20 51zM155 474q78 0 78 -78q0 -25 -6.5 -47.5t-30 -42.5t-61.5 -20q-78 0 -78 82q0 45 23 75.5t75 30.5z"/>
<glyph glyph-name="less" horiz-adv-x="429" unicode="&lt;" d="M158 345q107 -54 201 -100q10 -6 10 -20q-5 -109 -48 -109q-36 0 -147.5 70t-137.5 100q-8 10 -8 25l4 61q1 21 20 36q40 30 171 98t162 68q12 0 12 -13q0 -69 -11.5 -94.5t-42.5 -42.5q-39 -22 -185 -79z"/>
<glyph glyph-name="equal" horiz-adv-x="543" unicode="=" d="M379 94h-322q-11 0 -11 11l3 54q2 32 16 51t56 19h322q16 0 16 -14l-4 -54q-3 -34 -18.5 -50.5t-57.5 -16.5zM415 354h-322q-11 0 -11 11l3 54q2 32 16 51t56 19h322q16 0 16 -14l-4 -54q-3 -34 -18.5 -50.5t-57.5 -16.5z"/>
<glyph glyph-name="greater" horiz-adv-x="431" unicode="&gt;" d="M277 345q-107 54 -201 100q-10 6 -10 20q5 109 48 109q36 0 147.5 -70t137.5 -100q8 -10 8 -25l-4 -61q-1 -21 -20 -36q-40 -30 -171 -98t-162 -68q-12 0 -12 13q0 69 11.5 94.5t42.5 42.5q39 22 185 79z"/>
<glyph glyph-name="question" horiz-adv-x="528" unicode="?" d="M310 268q-10 -20 -25 -20h-36q-73 0 -73 57q0 26 17.5 52.5t42 49.5t49.5 46t42.5 49t17.5 51q0 27 -16.5 46t-49.5 19q-20 0 -36 -7.5t-25 -17.5t-16 -28.5t-10 -30.5t-7 -33q-2 -12 -7 -15t-22 -3q-60 0 -86 21t-26 67q0 88 76 134t183 46t161 -51t54 -127 q0 -49 -26.5 -94.5t-60 -75.5t-70.5 -67.5t-51 -67.5zM235 178q78 0 78 -78q0 -42 -22 -76t-77 -34q-77 0 -77 82q0 45 23 75.5t75 30.5z"/>
<glyph glyph-name="at" horiz-adv-x="799" unicode="@" d="M348 -109q-157 0 -238 89t-81 243q0 177 106 288t308 111q93 0 159.5 -24.5t102 -68t51.5 -93.5t16 -111q0 -114 -53.5 -184.5t-161.5 -70.5q-49 0 -81.5 15t-32.5 44q-45 -58 -111 -58q-115 0 -115 160q0 107 47 167t129 60q37 0 55.5 -13.5t26.5 -44.5q3 51 17 51h31 q61 0 61 -48q0 -14 -12 -96.5t-12 -109.5q0 -39 30 -39q33 0 50.5 44t17.5 106q0 209 -221 209q-76 0 -133.5 -24.5t-90 -66.5t-48 -93t-15.5 -110q0 -114 55.5 -170t156.5 -56q49 0 86 14.5t43 14.5q16 0 16 -22q0 -33 -14 -59q-30 -54 -145 -54zM416 368q-27 0 -45.5 -18 t-24.5 -46.5t-8 -43.5t-2 -28q0 -71 45 -71q41 0 61 44t20 97q0 66 -46 66z"/>
<glyph glyph-name="A" d="M319 563l-73 -264h115zM271 710h95q45 0 65.5 -28.5t33.5 -82.5q134 -540 134 -575q0 -24 -27 -24h-51q-42 0 -68 9.5t-40 33t-19 46t-10 65.5h-174l-33 -138q-5 -16 -23 -16h-53q-37 0 -66 16.5t-29 49.5q0 61 93.5 308t132.5 317q8 14 14 16.5t25 2.5z" unicode="A"/>
<glyph glyph-name="B" horiz-adv-x="605" unicode="B" d="M263 575q-7 -127 -8 -137q32 -8 57 -8q94 0 94 74q0 34 -22 55t-69 21q-20 0 -52 -5zM305 300q-25 0 -60 -6l-11 -163q36 -11 65 -11q97 0 97 92q0 88 -91 88zM248 -10q-113 0 -155 28t-42 90q0 26 19 269q20 263 20 281q0 34 2.5 42.5t15.5 9.5q125 8 173 8 q285 0 285 -182q0 -56 -25 -103t-81 -61q106 -33 106 -158q0 -224 -318 -224z"/>
<glyph glyph-name="C" horiz-adv-x="617" unicode="C" d="M351 146q37 0 69 12t49.5 27t35.5 27t31 12q20 0 20 -30q0 -27 -15 -89q-10 -41 -68 -78t-151 -37q-55 0 -102.5 15.5t-89.5 49.5t-66.5 98.5t-24.5 152.5q0 47 6.5 94.5t28 108t56.5 105t98.5 75.5t147.5 31q113 0 171.5 -50.5t58.5 -129.5q0 -123 -144 -123 q-21 0 -27 3.5t-6 14.5q-1 30 -1.5 42t-2.5 32t-5.5 27t-10 16.5t-17 12t-25.5 2.5q-44 0 -74.5 -27t-43.5 -71t-18 -80t-5 -73q0 -91 30 -130.5t95 -39.5z"/>
<glyph glyph-name="D" horiz-adv-x="666" unicode="D" d="M278 148q171 0 171 249q0 89 -26 128.5t-96 39.5q-5 0 -69 -4q-6 -135 -27 -410q20 -3 47 -3zM92 695q1 15 17 15q51 0 127.5 4.5t93.5 4.5q168 0 234.5 -69t66.5 -231q0 -69 -10 -128.5t-35.5 -116t-65 -96.5t-103.5 -64t-146 -24q-47 0 -74.5 1t-59 6.5t-48 16 t-27.5 29t-11 46.5q0 51 19 272q14 172 22 334z"/>
<glyph glyph-name="E" horiz-adv-x="501" unicode="E" d="M385 0h-230q-104 0 -104 85q0 42 21 310t21 300q0 15 16 15h352q16 0 16 -14l-4 -59q-3 -34 -18.5 -50.5t-57.5 -16.5h-138l-10 -141h142q16 0 16 -14l-4 -59q-3 -34 -18.5 -50.5t-57.5 -16.5h-87l-11 -149h220q16 0 16 -14l-4 -59q-3 -34 -18.5 -50.5t-57.5 -16.5z"/>
<glyph glyph-name="F" horiz-adv-x="464" unicode="F" d="M327 289h-87l-19 -274q-1 -13 -4 -14q-2 -1 -7 -1h-55q-104 0 -104 85q0 42 21 310t21 300q0 15 16 15h352q16 0 16 -14l-4 -59q-3 -34 -18.5 -50.5t-57.5 -16.5h-138l-10 -141h142q16 0 16 -14l-4 -59q-3 -34 -18.5 -50.5t-57.5 -16.5z"/>
<glyph glyph-name="G" horiz-adv-x="640" unicode="G" d="M550 0h-55q-95 0 -99 75q-12 -37 -49 -61t-100 -24q-88 0 -147 73.5t-59 238.5q0 50 6 97t27.5 108.5t57 106t101.5 75.5t155 31q101 0 160.5 -42t59.5 -114q0 -57 -38 -87t-107 -30q-21 0 -26 3.5t-6 14.5q-1 7 -2 28t-2.5 29.5t-7 21.5t-17 18t-29.5 5q-46 0 -77.5 -27 t-44.5 -71t-18 -79.5t-5 -72.5q0 -92 22.5 -131.5t65.5 -39.5q87 0 95 74l6 56q3 24 5 35.5t8.5 21t18.5 9.5h55q48 0 63.5 -22.5t15.5 -82.5q0 -39 -6 -119.5t-10 -102.5q-2 -9 -5 -12t-12 -3z"/>
<glyph glyph-name="H" horiz-adv-x="674" unicode="H" d="M570 0h-55q-104 0 -104 85q0 31 13 204h-178l-20 -274q-1 -15 -16 -15h-55q-104 0 -104 85q0 42 21 310t21 300q0 15 16 15h55q59 0 81 -24.5t22 -78.5q0 -8 -11 -173h179q18 236 18 261q0 15 16 15h55q59 0 81 -24.5t22 -78.5q0 -19 -19 -291t-22 -301q-1 -15 -16 -15z "/>
<glyph glyph-name="I" horiz-adv-x="314" unicode="I" d="M210 0h-55q-104 0 -104 85q0 42 21 310t21 300q0 15 16 15h55q59 0 81 -24.5t22 -78.5q0 -19 -19 -291t-22 -301q-1 -15 -16 -15z"/>
<glyph glyph-name="J" horiz-adv-x="479" unicode="J" d="M165 146q14 0 25 6.5t19.5 21.5t14 30t10.5 41.5t7.5 45t6.5 52.5q3 28 23 343q1 15 3.5 19.5t12.5 4.5h55q33 0 54 -5.5t29.5 -16t11 -19t2.5 -20.5q0 -163 -17 -323q-6 -53 -13.5 -94t-26 -89t-44.5 -79.5t-69.5 -52.5t-100.5 -21q-80 0 -127.5 37t-47.5 91q0 47 34 75 t80 28q6 0 9.5 -18.5t14.5 -37.5t34 -19z"/>
<glyph glyph-name="K" horiz-adv-x="623" unicode="K" d="M598 65q0 -19 -38 -47t-81 -28q-29 0 -53.5 16.5t-42.5 40t-37 68.5t-31.5 82t-31.5 101l-38 -25l-19 -258q-1 -15 -16 -15h-55q-55 0 -79.5 22t-24.5 67q0 32 20 288q20 261 22 318q0 15 16 15h55q60 0 80.5 -22.5t20.5 -72.5q0 -48 -10 -190q64 79 197 257q28 38 49 38 q26 0 62 -46t36 -75q0 -30 -53 -88t-148 -131q29 -47 80.5 -127t85.5 -132.5t34 -55.5z"/>
<glyph glyph-name="L" horiz-adv-x="448" unicode="L" d="M345 0h-190q-104 0 -104 85q0 42 21 310t21 300q0 15 16 15h55q54 0 76.5 -20.5t22.5 -64.5q0 -3 -0.5 -9t-0.5 -9l-33 -467h180q16 0 16 -14l-4 -59q-3 -34 -18.5 -50.5t-57.5 -16.5z"/>
<glyph glyph-name="M" horiz-adv-x="908" unicode="M" d="M685 533q-10 -30 -45 -139t-70 -214t-58 -163q-8 -17 -56 -17q-94 0 -113 51q-22 74 -56.5 249.5t-49.5 232.5q0 -21 -5.5 -224t-5.5 -263q0 -29 -3.5 -37.5t-12.5 -8.5h-55q-55 0 -79.5 22t-24.5 67q0 32 20 288q20 262 21 318q0 15 17 15h140q34 0 56.5 -8t39 -30 t26 -47t18 -72.5t14.5 -92.5t17.5 -121.5t24.5 -144.5q122 459 132 499q6 17 25 17h156q60 0 80.5 -22.5t20.5 -72.5q0 -59 -17.5 -310t-21.5 -290q-1 -15 -16 -15h-55q-104 0 -104 81q0 19 18.5 199t21.5 253z"/>
<glyph glyph-name="N" horiz-adv-x="688" unicode="N" d="M581 0h-82q-69 0 -90 42q-21 44 -190 403q1 -82 3.5 -232.5t3.5 -197.5q0 -15 -16 -15h-55q-55 0 -79.5 22t-24.5 67q0 32 20 288q20 252 22 318q0 15 16 15h80q32 0 54 -6.5t35.5 -22.5t20 -27.5t15.5 -35.5q80 -201 156 -374q0 84 -1.5 243.5t-1.5 213.5q0 9 17 9h55 q61 0 81 -23t20 -74q0 -64 -18.5 -314.5t-22.5 -282.5q0 -16 -18 -16z"/>
<glyph glyph-name="O" horiz-adv-x="711" unicode="O" d="M384 566q-49 0 -83 -26t-49 -68t-20.5 -78t-5.5 -73q0 -175 117 -175q43 0 74.5 28.5t46.5 73t21.5 84t6.5 76.5q0 158 -108 158zM405 721q143 0 208 -78t65 -227q0 -37 -4 -74t-14.5 -80t-27 -81t-44 -73.5t-63.5 -61t-87.5 -41t-113.5 -15.5q-284 0 -284 317 q0 65 11 123t37.5 112.5t67.5 93t104.5 62t144.5 23.5z"/>
<glyph glyph-name="P" horiz-adv-x="588" unicode="P" d="M317 570q-23 0 -63 -5q-3 -82 -13 -228q28 -7 56 -7q43 0 69.5 29t33.5 60t7 63q0 45 -20.5 66.5t-69.5 21.5zM201 0h-46q-55 0 -79.5 22t-24.5 67q0 55 20 288q20 232 21 318q0 15 15 15q36 0 119 5t111 5q240 0 240 -228q0 -60 -16 -113t-48 -96t-85.5 -68t-123.5 -25 q-43 0 -73 9l-14 -184q-1 -15 -16 -15z"/>
<glyph glyph-name="Q" horiz-adv-x="682" unicode="Q" d="M364 566q-42 0 -71.5 -26t-42.5 -68t-18.5 -79t-5.5 -75q0 -172 101 -172q40 0 68.5 28.5t42 73t19 85t5.5 79.5q0 154 -98 154zM545 -118q0 -19 -37.5 -47.5t-85.5 -28.5q-60 0 -94.5 47.5t-64.5 139.5q-223 25 -223 313q0 82 18 153t56.5 131.5t108 95.5t162.5 35 q138 0 200.5 -77t62.5 -226q0 -59 -9.5 -116t-32.5 -118t-70 -108.5t-113 -69.5q13 -13 47.5 -43.5t54.5 -51.5t20 -29z"/>
<glyph glyph-name="R" horiz-adv-x="617" unicode="R" d="M317 570q-22 0 -59 -5q-3 -70 -11 -187q35 -8 61 -8q30 0 51 11.5t30.5 30.5t13.5 36.5t4 36.5q0 85 -90 85zM205 0h-50q-55 0 -79.5 22t-24.5 67q0 32 20 288q3 46 17 263q3 46 6 58t13 12q46 0 126 5t104 5q240 0 240 -223q0 -171 -130 -232l84 -120q47 -68 47 -80 q0 -19 -37 -47t-89 -28q-30 0 -54.5 19.5t-43 57.5t-31.5 77.5t-26 95.5q-36 2 -59 7q-10 -150 -17 -232q-1 -15 -16 -15z"/>
<glyph glyph-name="S" horiz-adv-x="541" unicode="S" d="M326 720q91 0 138 -40t47 -108q0 -55 -31 -85t-89 -30q-18 0 -23 3.5t-5 14.5q0 93 -64 93q-33 0 -57.5 -20t-24.5 -50q0 -22 15.5 -39t40 -28.5t54 -24t59.5 -29t54.5 -38.5t40 -57.5t15.5 -81.5q0 -93 -59.5 -151.5t-171.5 -58.5q-93 0 -163.5 37t-70.5 73q0 67 8 95.5 t27 28.5q14 0 38 -19.5t59 -39t76 -19.5q75 0 75 51q0 23 -19 40t-48 27t-62.5 26.5t-62.5 37t-48 60.5t-19 95q0 62 24 109.5t64 74.5t86 40t97 13z"/>
<glyph glyph-name="T" horiz-adv-x="544" unicode="T" d="M483 570h-108l-38 -555q-1 -15 -11 -15h-55q-104 0 -104 85q0 20 34 485h-160q-11 0 -11 14l3 56q4 70 67 70h447q16 0 16 -14l-4 -59q-3 -34 -18.5 -50.5t-57.5 -16.5z"/>
<glyph glyph-name="U" horiz-adv-x="659" unicode="U" d="M603 326q-3 -31 -7 -56.5t-14 -62t-23.5 -64.5t-37 -58t-53.5 -50t-73.5 -32.5t-96.5 -12.5q-123 0 -182 65.5t-59 171.5q0 53 16 246.5t17 206.5q1 30 17 30h55q59 0 81 -24.5t22 -78.5q0 -4 -10.5 -158.5t-10.5 -174.5q0 -24 1.5 -40t7.5 -39.5t22 -36t41 -12.5 q97 0 111 197q24 297 24 336q0 20 3 25.5t13 5.5h55q61 0 79.5 -19t18.5 -53q0 -142 -17 -312z"/>
<glyph glyph-name="V" horiz-adv-x="623" unicode="V" d="M307 149q59 198 141 532q5 19 12 24.5t29 5.5q16 0 32.5 -2t41.5 -8t41 -22.5t16 -41.5q0 -64 -91.5 -308t-129.5 -310q-11 -19 -39 -19h-105q-45 0 -65.5 29.5t-33.5 83.5q-131 550 -131 577q0 22 70 22q74 0 103 -27t37 -80q50 -320 72 -456z"/>
<glyph glyph-name="W" horiz-adv-x="946" unicode="W" d="M668 149q36 184 91 532q3 19 10.5 24.5t34.5 5.5q17 0 34 -2t42 -8.5t40.5 -23.5t15.5 -43q0 -59 -72.5 -318.5t-93.5 -296.5q-11 -19 -39 -19h-95q-47 0 -70.5 32.5t-28.5 80.5l-50 449q-67 -498 -89 -543q-10 -19 -39 -19h-95q-45 0 -65.5 29.5t-33.5 83.5 q-85 342 -109 444.5t-24 127.5q0 17 10.5 22t44.5 5q82 0 116 -24t41 -83q30 -269 52 -456q8 45 17 95.5t12.5 72.5t8 47.5t10.5 73t12 93t20 159.5q2 20 77 20q80 0 114 -20t48 -75q12 -49 53 -466z"/>
<glyph glyph-name="X" horiz-adv-x="640" unicode="X" d="M604 21q0 -13 -15 -17.5t-48 -4.5q-73 0 -108.5 15t-51.5 48l-84 175q-24 -37 -70.5 -111t-72.5 -113q-4 -6 -16.5 -14.5t-24.5 -8.5q-28 0 -63.5 52t-35.5 89q0 38 69.5 104.5t151.5 121.5q-24 41 -61 103.5t-56 94t-40 67.5t-29.5 52.5t-8.5 20.5t7.5 7t23 5.5 t35.5 2.5q79 0 120 -22.5t66 -80.5l55 -125q30 39 76.5 110.5t77.5 115.5q9 12 25 12q33 0 68.5 -53t35.5 -86q0 -34 -73 -101t-147 -116q18 -36 69 -116.5t88 -143.5t37 -83z"/>
<glyph glyph-name="Y" horiz-adv-x="609" unicode="Y" d="M351 0h-55q-58 0 -81 22.5t-23 73.5q0 42 11 173q-25 46 -57 117q-8 19 -29 66t-35 79t-30 69.5t-24.5 60.5t-8.5 30q0 21 67 21q40 0 67 -7.5t42.5 -24.5t23 -32.5t15.5 -42.5q35 -118 77 -248q56 118 75.5 166t55.5 158q6 18 12.5 24t20.5 6q11 0 28 -1.5t45 -7 t47 -19.5t19 -35q0 -49 -84.5 -198.5t-148.5 -216.5q-4 -129 -14 -218q-1 -15 -16 -15z"/>
<glyph glyph-name="Z" horiz-adv-x="554" unicode="Z" d="M430 0h-412q-11 0 -11 11l3 54q3 33 12 45q11 20 101 157.5t183 302.5h-228q-8 0 -9.5 2.5t-1.5 11.5l3 56q2 32 16 51t56 19h382q16 0 16 -14l-4 -54q-1 -26 -12 -43q-234 -381 -284 -459h254q16 0 16 -14l-4 -59q-3 -34 -18.5 -50.5t-57.5 -16.5z"/>
<glyph glyph-name="bracketleft" horiz-adv-x="400" unicode="[" d="M269 -185h-155q-81 0 -81 85q0 55 33 477q23 293 23 348q0 15 16 15h287q16 0 16 -14l-4 -59q-3 -34 -18.5 -50.5t-57.5 -16.5h-92q-20 -326 -44 -645h141q16 0 16 -14l-4 -59q-3 -34 -18.5 -50.5t-57.5 -16.5z"/>
<glyph glyph-name="backslash" horiz-adv-x="329" unicode="\" d="M199 -10q-23 0 -31.5 6t-12.5 32q-19 116 -36.5 221.5t-28 163t-18.5 105t-11.5 73t-3.5 41.5q0 22 2 33t10 23t26 17t48 5q10 0 15.5 -1t11 -8t7.5 -20q62 -343 80.5 -457.5t18.5 -158.5q0 -26 -5.5 -41.5t-17.5 -22.5t-23.5 -9t-30.5 -2z"/>
<glyph glyph-name="bracketright" horiz-adv-x="400" unicode="]" d="M126 740h152q84 0 84 -85q0 -55 -33 -477q-23 -293 -23 -348q0 -15 -16 -15h-287q-16 0 -16 14l4 59q3 34 18.5 50.5t57.5 16.5h92l43 645h-140q-16 0 -16 14l4 59q3 34 18.5 50.5t57.5 16.5z"/>
<glyph glyph-name="asciicircum" horiz-adv-x="457" unicode="^" d="M366 148q-36 0 -131 152q-128 -152 -165 -152q-12 0 -31 18t-19 25q0 4 9 17.5t29.5 39t35.5 43.5t46 55.5t42 50.5q13 15 66 15q44 0 53 -15q120 -199 120 -206q0 -6 -21.5 -24.5t-33.5 -18.5z"/>
<glyph glyph-name="underscore" horiz-adv-x="526" unicode="_" d="M367 -150h-332q-11 0 -11 11l3 54q2 32 16 51t56 19h332q16 0 16 -14l-4 -54q-3 -34 -18.5 -50.5t-57.5 -16.5z"/>
<glyph glyph-name="grave" horiz-adv-x="211" unicode="`" d="M144 615q-23 0 -78.5 65t-55.5 88q0 17 42 39t68 22q15 0 21 -15q11 -28 27 -66t24.5 -59.5t8.5 -25.5q0 -12 -22 -30t-35 -18z"/>
<glyph glyph-name="a" horiz-adv-x="563" unicode="a" d="M322 237q-59 0 -99 -18t-40 -55q0 -41 46 -41q35 0 62 30t31 84zM11 123q0 90 82 141t238 55q2 28 2 37q0 35 -13.5 52.5t-48.5 17.5q-27 0 -42.5 -11.5t-21.5 -25.5t-13 -44q-4 -14 -31 -14q-102 0 -102 77q0 66 59.5 109t169.5 43q211 0 211 -176q0 -15 -8.5 -99 t-8.5 -99q0 -29 15 -41t29.5 -15t14.5 -10q0 -52 -28.5 -91t-91.5 -39q-88 0 -104 87q-61 -87 -163 -87q-65 0 -105 32t-40 101z"/>
<glyph glyph-name="b" horiz-adv-x="600" unicode="b" d="M315 427q-105 0 -105 -176q0 -68 18.5 -98t57.5 -30q33 0 56 21.5t32 56t12.5 60.5t3.5 51q0 115 -75 115zM270 -10q-59 0 -102 15.5t-66 37.5t-36.5 55t-17 59t-3.5 58q0 26 17 245.5t17 250.5q0 21 3 25t18 4h39q104 0 104 -87q0 -30 -12 -181q26 46 60 67t86 21 q91 0 139.5 -60.5t48.5 -178.5q0 -43 -6 -83t-25.5 -87t-50 -81t-86 -57t-127.5 -23z"/>
<glyph glyph-name="c" horiz-adv-x="508" unicode="c" d="M293 123q34 0 62.5 13t46.5 26t26 13q23 0 23 -30q0 -14 -11.5 -46t-20.5 -43t-26.5 -24t-55.5 -27.5t-80 -14.5q-41 0 -78.5 12t-72.5 39t-56 78t-21 121q0 37 5 73.5t23 83t46.5 81t80.5 58.5t120 24q93 0 141 -40t48 -104q0 -105 -130 -105q-15 0 -20.5 2.5t-5.5 11.5 q0 31 -1 44.5t-5.5 30t-14 22t-25.5 5.5q-29 0 -49 -19t-28.5 -50.5t-11.5 -56.5t-3 -51q0 -70 22 -98.5t72 -28.5z"/>
<glyph glyph-name="d" horiz-adv-x="608" unicode="d" d="M311 427q-50 0 -75 -43.5t-25 -120.5q0 -140 80 -140q45 0 73 44t28 130q0 130 -81 130zM224 -10q-85 0 -139.5 61.5t-54.5 183.5q0 39 5.5 78.5t22 85.5t43 80.5t72.5 57.5t105 23q104 0 119 -78q3 59 8 129.5t7 99.5q1 22 5 26q3 3 16 3h39q104 0 104 -86 q0 -1 -10.5 -146t-22.5 -303t-15 -185q-2 -13 -5 -16.5t-17 -3.5h-36q-48 0 -74 16.5t-26 59.5q-40 -86 -146 -86z"/>
<glyph glyph-name="e" horiz-adv-x="532" unicode="e" d="M291 427q-72 0 -88 -130q63 1 101 21.5t38 56.5q0 22 -13.5 37t-37.5 15zM272 -10q-47 0 -87.5 11.5t-77 37t-58 73t-21.5 112.5q0 36 5.5 74t25 87t50 86t87 63t129.5 26q98 0 143 -41.5t45 -108.5q0 -52 -27 -90t-63.5 -57t-85.5 -30.5t-78.5 -13.5t-58.5 -2 q0 -43 23.5 -72.5t71.5 -29.5q24 0 40.5 8.5t23.5 19t15.5 19t17.5 8.5q11 0 26 -4.5t32.5 -22t17.5 -44.5q0 -37 -31.5 -62.5t-74 -36t-90.5 -10.5z"/>
<glyph glyph-name="f" horiz-adv-x="451" unicode="f" d="M309 346h-61q-4 -50 -10.5 -132t-11 -137t-4.5 -57q-1 -12 -5 -16t-17 -4h-36q-53 0 -75 24.5t-22 77.5q0 12 17 244h-47q-11 0 -11 11q0 4 0.5 13t1.5 21t1 20q1 20 5 33t19 24.5t42 12.5l4 40q12 125 70.5 177t166.5 52q96 0 140.5 -32t44.5 -87q0 -96 -120 -96 q-15 0 -20.5 2.5t-5.5 11.5q0 38 -7 54.5t-32 16.5q-64 0 -78 -139h115q16 0 16 -14l-4 -54q-3 -34 -18.5 -50.5t-57.5 -16.5z"/>
<glyph glyph-name="g" horiz-adv-x="607" unicode="g" d="M284 163q33 0 56 16t32.5 42.5t13 48.5t3.5 46q0 59 -18 85t-56 26q-34 0 -57.5 -19t-33 -49.5t-12.5 -52.5t-3 -44q0 -51 17.5 -75t57.5 -24zM368 118q-49 -88 -151 -88q-86 0 -135 56t-49 170q0 53 11 102t35.5 97t73.5 76.5t117 28.5q27 0 51 -13t37.5 -28t24.5 -28 t15 -13l1 14q1 13 2 29t1 19q1 10 13 10h46q53 0 76 -22.5t23 -80.5q0 -51 -12.5 -214t-31.5 -250q-38 -178 -270 -178q-99 0 -155 35t-56 81q0 35 27 54.5t60 19.5q15 0 25.5 -10t17.5 -22.5t28.5 -22.5t55.5 -10q64 0 91.5 47t27.5 141z"/>
<glyph glyph-name="h" horiz-adv-x="608" unicode="h" d="M373 124q19 209 19 235q0 67 -61 67q-47 0 -77 -45t-35 -120q-1 -21 -6 -80t-9 -106t-4 -55q0 -12 -4.5 -16t-17.5 -4h-36q-58 0 -80 23t-22 72q0 22 5.5 83t17 205t21.5 328q1 22 5 26q3 3 16 3h39q104 0 104 -86q0 -31 -12 -182q29 49 65.5 68.5t93.5 19.5 q86 0 125.5 -40.5t39.5 -140.5q0 -18 -5 -77.5t-12 -140.5t-10 -130q-1 -22 -5.5 -26.5t-21.5 -4.5h-32q-60 0 -81.5 21.5t-21.5 66.5q0 14 2 36z"/>
<glyph glyph-name="i" horiz-adv-x="281" unicode="i" d="M73 668q0 40 29 63t78 23q82 0 82 -64q0 -38 -28.5 -62t-79.5 -24q-81 0 -81 64zM180 0h-36q-58 0 -80 23t-22 72q0 6 30 426q1 22 5 26q3 3 16 3h39q58 0 80 -22.5t22 -68.5q0 -40 -32 -439q-1 -12 -5 -16t-17 -4z"/>
<glyph glyph-name="j" horiz-adv-x="279" unicode="j" d="M61 668q0 40 29 63t78 23q82 0 82 -64q0 -38 -28.5 -62t-79.5 -24q-81 0 -81 64zM45 121l26 414q0 9 3 12t19 3h36q47 0 76 -21t29 -47q0 -24 -32 -453q-5 -68 -22 -114t-43.5 -69t-55 -32t-64.5 -9q-65 0 -115.5 23.5t-50.5 66.5q0 22 14 37.5t35 22t36.5 8.5t28.5 2 q3 0 6.5 -8.5t11.5 -17.5t20 -9q22 0 28 34.5t14 156.5z"/>
<glyph glyph-name="k" horiz-adv-x="539" unicode="k" d="M516 81q0 -20 -24.5 -55.5t-63.5 -35.5q-49 0 -100.5 61t-111.5 172q-1 -14 -16 -203q-1 -12 -5 -16t-17 -4h-36q-59 0 -80.5 23.5t-21.5 74.5q0 13 1.5 29.5l5 55t8 94.5t12.5 171.5t17 262.5q1 22 5 26q3 3 16 3h39q104 0 104 -87q0 -20 -17 -254l160 146q15 14 28 14 q20 0 47.5 -45.5t27.5 -70.5q0 -53 -187 -133q43 -48 100.5 -107t83 -87t25.5 -35z"/>
<glyph glyph-name="l" horiz-adv-x="302" unicode="l" d="M157 -9q-62 0 -89 33t-27 109q0 17 5 69t16 188t21 321q1 22 5 26q3 3 16 3h39q104 0 104 -86q0 -40 -17 -239.5t-17 -237.5q0 -30 15 -43t30 -15.5t15 -6.5q0 -121 -116 -121z"/>
<glyph glyph-name="m" horiz-adv-x="902" unicode="m" d="M214 180q-2 -35 -7 -90.5t-6 -69.5q-1 -12 -5 -16t-17 -4h-36q-58 0 -80 23t-22 72q0 6 30 426q1 22 5 26q3 3 16 3h39q97 0 103 -82q28 52 64 72t89 20q131 0 151 -103q31 58 67.5 80.5t93.5 22.5q155 0 155 -141q0 -36 -4.5 -100t-12 -151.5t-10.5 -136.5 q-1 -22 -5.5 -26.5t-21.5 -4.5h-32q-60 0 -81.5 21.5t-21.5 66.5q0 31 10.5 147t10.5 125q0 66 -51 66q-93 0 -109 -224q-9 -119 -12 -171q-1 -22 -5.5 -26.5t-21.5 -4.5h-32q-60 0 -81.5 21.5t-21.5 66.5q0 27 10.5 138.5t10.5 133.5q0 66 -51 66q-91 0 -108 -246z"/>
<glyph glyph-name="n" d="M382 88q0 28 10.5 132.5t10.5 138.5q0 67 -61 67q-47 0 -73 -34t-41 -117.5t-27 -254.5q-1 -12 -5 -16t-17 -4h-36q-58 0 -80 23t-22 72q0 6 30 426q1 22 5 26q3 3 16 3h39q98 0 104 -84q31 52 70.5 73t100.5 21q86 0 125.5 -40.5t39.5 -140.5q0 -36 -13.5 -185.5 t-13.5 -162.5q0 -21 -4.5 -26t-22.5 -5h-32q-60 0 -81.5 21.5t-21.5 66.5z" unicode="n"/>
<glyph glyph-name="o" horiz-adv-x="598" unicode="o" d="M312 427q-35 0 -59.5 -18.5t-35 -49t-14.5 -56t-4 -52.5q0 -128 81 -128q33 0 57 21.5t35.5 54.5t16.5 63t5 58q0 107 -82 107zM265 -10q-236 0 -236 250q0 64 15 118.5t48.5 101.5t94 73.5t142.5 26.5q122 0 178.5 -59.5t56.5 -174.5q0 -43 -6.5 -84t-26.5 -88.5 t-52 -82t-87 -58t-127 -23.5z"/>
<glyph glyph-name="p" horiz-adv-x="612" unicode="p" d="M314 427q-49 0 -74 -43t-25 -121q0 -140 80 -140q45 0 73 44t28 130q0 130 -82 130zM387 560q189 0 189 -241q0 -152 -66.5 -240.5t-169.5 -88.5q-93 0 -130 88q-5 -51 -7 -74t-2.5 -31t-3.5 -43.5t-8 -94.5q-1 -12 -5 -16t-17 -4h-36q-58 0 -80 23t-22 72q0 41 45 611 q1 22 5 26q3 3 16 3h39q51 0 77 -21.5t26 -54.5q44 86 150 86z"/>
<glyph glyph-name="q" horiz-adv-x="609" unicode="q" d="M312 427q-33 0 -55.5 -18t-32 -48.5t-13 -55.5t-3.5 -53q0 -68 18.5 -98.5t56.5 -30.5q34 0 57 21.5t32.5 56t12.5 60t3 50.5q0 59 -18 87.5t-58 28.5zM276 560q47 0 79 -24t41 -62q0 76 19 76h45q51 0 77.5 -22.5t26.5 -63.5q0 -12 -4.5 -61t-16 -200.5t-24.5 -363.5 q-1 -29 -21 -29h-39q-104 0 -104 87q0 30 12 181q-51 -88 -155 -88q-180 0 -180 245q0 159 63.5 242t180.5 83z"/>
<glyph glyph-name="r" horiz-adv-x="479" unicode="r" d="M364 311q-45 0 -45 13q0 9 1 24t1 23q0 50 -30 50q-59 0 -70 -146q-2 -32 -7 -95t-8.5 -106.5t-3.5 -53.5q0 -20 -22 -20h-36q-58 0 -80 23t-22 72q0 6 30 426q2 29 21 29h39q94 0 103 -76q21 43 59.5 64.5t75.5 21.5q43 0 76 -30t33 -86t-32 -94.5t-83 -38.5z"/>
<glyph glyph-name="s" horiz-adv-x="470" unicode="s" d="M274 560q81 0 123 -32.5t42 -86.5q0 -44 -27.5 -67t-79.5 -23q-14 0 -19 3t-5 11q-1 18 -3 29.5t-16 24.5t-39 13q-28 0 -45 -13.5t-17 -33.5q0 -22 24.5 -38t59.5 -28.5t70 -29t59.5 -51t24.5 -84.5q0 -74 -53 -119t-151 -45q-73 0 -142.5 21t-69.5 63q0 23 16 49.5 t42 26.5q10 0 45.5 -18.5t86.5 -18.5q64 0 64 33q0 15 -12 26.5t-31.5 20t-42.5 17t-46.5 21.5t-43 30.5t-31.5 46.5t-12 67q0 49 20 86t53.5 58t72.5 31t83 10z"/>
<glyph glyph-name="t" horiz-adv-x="399" unicode="t" d="M309 415h-53q-19 -211 -19 -244q0 -25 6 -34t20 -9q17 0 34 13t25 13q19 0 19 -45q0 -119 -133 -119q-141 0 -141 136q0 18 2.5 47t8.5 97t12 145h-53q-11 0 -11 14l3 51q2 32 16 51t56 19q4 11 12 33.5t14.5 39.5t14 35.5t14.5 28.5t12 10h29q74 0 74 -88q0 -20 -3 -59 h105q16 0 16 -14l-4 -54q-3 -34 -18.5 -50.5t-57.5 -16.5z"/>
<glyph glyph-name="u" horiz-adv-x="600" unicode="u" d="M232 465q0 -29 -10.5 -138.5t-10.5 -128.5q0 -34 17.5 -54t48.5 -20q22 0 39.5 15.5t28.5 44t19 60.5t12.5 74.5t7 76t5 74.5t4.5 61t22 20h36q58 0 80 -23t22 -72q0 -6 -30 -426q-2 -21 -4.5 -25t-16.5 -4h-39q-98 0 -104 82q-53 -92 -154 -92q-74 0 -117.5 45 t-43.5 113q0 36 10.5 183.5t14.5 187.5q1 18 7.5 24.5t20.5 6.5h32q59 0 81 -21t22 -64z"/>
<glyph glyph-name="v" horiz-adv-x="560" unicode="v" d="M270 127q16 56 96 399q3 15 9 19t26 4q148 0 148 -59q0 -47 -83 -236.5t-117 -238.5q-8 -11 -13.5 -13t-20.5 -2h-89q-26 0 -43.5 14t-24.5 29.5t-15 43.5q-32 111 -58.5 198t-39.5 129t-22 69.5t-11.5 34.5t-2.5 9q1 8 10.5 15.5t22.5 7.5q95 0 134 -16.5t48 -66.5 l18 -141q19 -141 28 -199z"/>
<glyph glyph-name="w" horiz-adv-x="839" unicode="w" d="M577 107q12 66 69 419q3 23 43 23q139 0 139 -62q0 -13 -6 -37.5t-18.5 -61t-24.5 -68.5t-31 -81t-30 -75.5t-31 -75t-24 -58.5q-8 -18 -16 -24t-26 -6h-59q-51 0 -72 22.5t-29 64.5q-25 129 -41 340q-7 -33 -24.5 -133t-32.5 -182.5t-22 -96.5q-7 -15 -34 -15h-70 q-89 0 -111 87q-110 428 -110 440q0 9 9 16t23 7q91 0 127.5 -16.5t43.5 -66.5q2 -15 6 -81.5t9.5 -151t8.5 -127.5q54 280 79 419q4 24 53 24q73 0 112 -13.5t51 -59.5q7 -21 22 -189q10 -106 17 -181z"/>
<glyph glyph-name="x" horiz-adv-x="555" unicode="x" d="M262 458l46 -89q22 28 52 79t50.5 81t30.5 30q17 0 49 -41t32 -79q0 -39 -37 -76.5t-118 -93.5q21 -31 44.5 -66.5t37.5 -55.5t28.5 -42.5t22.5 -35t15 -24t9.5 -17.5t2.5 -10q0 -7 -8.5 -12.5t-21.5 -5.5h-68q-93 0 -141 98l-40 80q-42 -47 -75.5 -97t-48 -71t-25.5 -21 q-21 0 -54.5 30.5t-33.5 75.5q0 43 39 81t137 97q-36 63 -76 126.5t-56.5 91t-16.5 38.5q0 21 63 21q72 0 104.5 -22t56.5 -70z"/>
<glyph glyph-name="y" horiz-adv-x="610" unicode="y" d="M232 458q0 -33 -9.5 -117t-9.5 -102q0 -36 18 -55.5t46 -19.5q46 0 74.5 48t35.5 131l16 187q1 20 22 20h36q102 0 102 -83q0 -28 -30 -438q-5 -64 -29 -109.5t-62.5 -69.5t-81.5 -34.5t-95 -10.5q-100 0 -166.5 33.5t-66.5 82.5q0 36 29.5 55t72.5 19q8 0 15 -10 t13.5 -22.5t30.5 -22.5t63 -10q116 0 116 188q-49 -88 -158 -88q-166 0 -166 188q0 30 21 301q2 31 28 31h32q60 0 81.5 -22t21.5 -70z"/>
<glyph glyph-name="z" horiz-adv-x="513" unicode="z" d="M385 0h-372q-11 0 -11 11l3 54q2 32 28 65t94 112.5t134 177.5h-188q-8 0 -9.5 3t-1.5 11l3 46q2 32 16 51t56 19h342q16 0 16 -14l-4 -54q-1 -25 -20 -53q-2 -3 -39.5 -48t-94 -116.5t-102.5 -134.5h214q16 0 16 -14l-4 -49q-3 -34 -18.5 -50.5t-57.5 -16.5z"/>
<glyph glyph-name="braceleft" horiz-adv-x="449" unicode="{" d="M255 142q0 -10 -0.5 -28t-0.5 -26q0 -72 16 -102.5t66 -30.5h46q16 0 16 -14l-4 -59q-1 -19 -3 -28t-8.5 -20t-19.5 -15t-35 -4h-72q-49 0 -81.5 16t-47.5 46t-20.5 59t-5.5 67q0 17 1 46t1 42q0 56 -17.5 87t-67.5 31q-16 0 -16 14l7 112q1 14 18 14q25 0 42.5 11.5 t28 27.5t18.5 50.5t11.5 61.5t9.5 79q8 77 61 119t139 42h89q30 0 30 -33l-3 -40q-2 -29 -13.5 -44t-24 -18t-38.5 -5q-32 -3 -50.5 -11.5t-29 -31t-14.5 -42.5t-9 -64q-14 -118 -95 -162q76 -29 76 -147z"/>
<glyph glyph-name="bar" horiz-adv-x="275" unicode="|" d="M155 -185h-20q-58 0 -80 23t-22 72q0 18 9 140.5t24 321.5t23 309q1 21 4 25t17 4h23q58 0 80 -22.5t22 -68.5q0 -60 -58 -784q-1 -12 -5 -16t-17 -4z"/>
<glyph glyph-name="braceright" horiz-adv-x="449" unicode="}" d="M189 413q0 11 0.5 29t0.5 25q0 72 -16 102.5t-66 30.5h-46q-16 0 -16 14l4 59q3 34 18.5 50.5t57.5 16.5h62q49 0 81.5 -16t47.5 -46t20.5 -59t5.5 -67q0 -16 -1 -45t-1 -43q0 -56 17.5 -87t67.5 -31q16 0 16 -14l-7 -112q-1 -14 -18 -14q-25 0 -42.5 -11.5t-28 -27.5 t-18.5 -50.5t-11.5 -61.5t-9.5 -79q-8 -77 -61 -119t-139 -42h-89q-30 0 -30 33l3 40q1 22 6.5 35.5t17 20t22 8.5t30.5 3q32 3 50.5 11.5t29 31t14.5 42.5t9 64q14 118 95 162q-76 29 -76 147z"/>
<glyph glyph-name="asciitilde" horiz-adv-x="604" unicode="~" d="M424 311q29 0 50.5 15t36 30t24.5 15q20 0 20 -40q0 -59 -37.5 -102t-118.5 -43q-48 0 -92 16t-79.5 32.5t-60.5 16.5q-28 0 -47.5 -16.5t-31.5 -32.5t-23 -16q-20 0 -20 41q0 57 33.5 100.5t112.5 43.5q56 0 130 -30t103 -30z"/>
<glyph glyph-name="uni00A0" horiz-adv-x="215" unicode=" "/>
<glyph glyph-name="exclamdown" horiz-adv-x="286" unicode="¡" d="M99 307h36q47 0 64.5 -23t17.5 -75q0 -1 -26 -365q-2 -24 -4 -26q-3 -3 -17 -3h-59q-51 0 -76.5 20.5t-25.5 51.5q0 20 4.5 56t14 88.5t16.5 88t19 96t14 71.5q2 12 6.5 16t15.5 4zM157 377q-78 0 -78 78q0 42 22 76t77 34q77 0 77 -82q0 -45 -23 -75.5t-75 -30.5z"/>
<glyph glyph-name="cent" horiz-adv-x="511" unicode="¢" d="M289 123q34 0 62.5 13t46.5 26t26 13q23 0 23 -30q0 -14 -11.5 -46t-20.5 -43q-39 -43 -108 -59l-8 -81q-2 -12 -6 -16t-16 -4q-47 0 -64.5 23t-17.5 72v6q-73 15 -121.5 74t-48.5 169q0 33 4.5 66.5t18.5 76t37 76.5t64.5 61t95.5 36q1 10 2 27.5t2 28t3.5 22.5 t7.5 17.5t13 5.5q48 0 66.5 -22.5t18.5 -68.5q0 -6 -1 -11q65 -12 98.5 -49.5t33.5 -89.5q0 -105 -130 -105q-15 0 -20.5 2.5t-5.5 11.5q0 31 -1 44.5t-5.5 30t-14 22t-25.5 5.5q-29 0 -49 -19t-28.5 -50.5t-11.5 -56.5t-3 -51q0 -70 22 -98.5t72 -28.5z"/>
<glyph glyph-name="sterling" horiz-adv-x="555" unicode="£" d="M412 0h-386q-11 0 -11 14l6 92q1 8 8.5 13.5t18.5 11t22.5 14.5t20.5 29.5t11 50.5l5 68h-53q-11 0 -11 14l3 51q2 32 16 51t56 19l5 70q9 124 68.5 175.5t166.5 51.5q96 0 141 -34t45 -90q0 -95 -120 -95q-16 0 -21 2.5t-5 11.5q-1 41 -7.5 56t-30.5 15q-17 0 -30 -6 t-21 -20.5t-13 -26.5t-8.5 -35.5t-4.5 -36t-3 -38.5h140q16 0 16 -14l-4 -54q-3 -34 -18.5 -50.5t-57.5 -16.5h-87l-6 -72q-5 -50 -59 -81h272q16 0 16 -14l-4 -59q-3 -34 -18.5 -50.5t-57.5 -16.5z"/>
<glyph glyph-name="currency" horiz-adv-x="672" unicode="¤" d="M338 427q-35 0 -59 -14.5t-34.5 -38t-14.5 -42.5t-4 -39q0 -90 80 -90q44 0 71.5 26t35.5 54.5t8 58.5q0 85 -83 85zM293 70q-62 0 -109 14q-8 -7 -19.5 -17.5t-18 -16.5t-15.5 -14t-15 -12.5t-12.5 -8.5t-12 -6t-9.5 -2q-17 0 -31 26t-14 44q0 23 54 72q-35 48 -35 133 q0 113 58 183q-58 70 -58 84q0 10 22.5 25.5t43.5 15.5q30 0 79 -58q64 28 153 28q110 0 170 -46q72 60 85 60q12 0 26.5 -25.5t14.5 -44.5q0 -20 -17 -38.5t-50 -45.5q8 -34 8 -69q0 -117 -63 -192q67 -78 67 -92q0 -12 -25 -27t-48 -15q-19 0 -34.5 13.5t-51.5 56.5 q-59 -25 -143 -25z"/>
<glyph glyph-name="yen" horiz-adv-x="658" unicode="¥" d="M487 94h-81q-4 -77 -7 -84q-4 -10 -15 -10h-55q-58 0 -81 22.5t-23 71.5h-140q-11 0 -11 11l3 54q2 32 16 51t56 19h84l3 40l-9 15h-116q-11 0 -11 11l3 54q1 14 3.5 24t8.5 20.5t18 17t31 7.5q-112 256 -112 273q0 21 67 21q40 0 67 -7.5t42.5 -24.5t23 -32.5 t15.5 -42.5q35 -118 77 -248q56 118 75.5 166t55.5 158q6 18 11.5 24t21.5 6q11 0 28 -1.5t45 -7t47 -19.5t19 -35q0 -58 -102 -229h32q16 0 16 -14l-4 -54q-3 -34 -18.5 -50.5t-57.5 -16.5h-57q-27 -36 -42 -51v-4h137q16 0 16 -14l-4 -54q-3 -34 -18.5 -50.5t-57.5 -16.5z "/>
<glyph glyph-name="brokenbar" horiz-adv-x="274" unicode="¦" d="M154 -185h-20q-102 0 -102 84q0 12 20 282q1 21 4 25t17 4h23q102 0 102 -79q0 -21 -19 -296q-1 -20 -25 -20zM190 315h-20q-102 0 -102 84q0 12 20 282q1 21 4 25t17 4h23q57 0 79.5 -22.5t22.5 -68.5q0 -9 -19 -284q-1 -20 -25 -20z"/>
<glyph glyph-name="section" horiz-adv-x="516" unicode="§" d="M209 379q-14 -8 -26 -29t-12 -43q0 -14 3.5 -25.5t13 -21.5t15.5 -16.5t22.5 -14t22 -10.5t25 -10t21.5 -8q16 8 29.5 29.5t13.5 42.5q0 23 -12 41.5t-34.5 31t-39.5 19t-42 14.5zM326 720q80 0 122 -32.5t42 -86.5q0 -44 -27.5 -67t-79.5 -23q-15 0 -19.5 2.5t-4.5 11.5 q-1 18 -3 29t-15.5 24.5t-38.5 13.5q-29 0 -50.5 -15.5t-21.5 -40.5q0 -22 18.5 -37t45.5 -22.5t59.5 -20t59.5 -27t45.5 -44.5t18.5 -72q0 -50 -26 -89t-79 -58q59 -41 59 -113q0 -74 -53 -118.5t-155 -44.5q-80 0 -144 24t-64 47q0 49 7 69t26 20q8 0 57 -18.5t102 -18.5 q62 0 62 36q0 23 -23.5 37.5t-57 24.5t-67 25t-57 49t-23.5 85q0 102 88 153q-42 39 -42 107q0 95 71.5 142.5t167.5 47.5z"/>
<glyph glyph-name="dieresis" horiz-adv-x="386" unicode="¨" d="M228 677q0 36 24 57t65 21q69 0 69 -58q0 -34 -24 -56t-66 -22q-68 0 -68 58zM0 677q0 36 24 57t65 21q69 0 69 -58q0 -34 -24 -56t-66 -22q-68 0 -68 58z"/>
<glyph glyph-name="copyright" horiz-adv-x="803" unicode="©" d="M445 721q165 0 244.5 -87t79.5 -238q0 -180 -105.5 -293t-296.5 -113q-166 0 -247.5 87.5t-81.5 238.5q0 179 108 292t299 113zM377 86q76 0 133.5 25t91 68.5t50 97t16.5 115.5q0 234 -232 234q-148 0 -222.5 -88.5t-74.5 -218.5q0 -117 62 -175t176 -58zM426 249 q33 0 63 17.5t34 17.5q15 0 15 -19q0 -11 -7.5 -31.5t-14.5 -29.5q-7 -8 -19.5 -16.5t-40.5 -18.5t-59 -10q-63 0 -109 39.5t-46 130.5q0 25 3.5 49.5t15.5 56t31.5 55t55 39.5t82.5 16q65 0 100.5 -27.5t35.5 -70.5q0 -70 -93 -70q-13 0 -17.5 12t-3.5 27t-5.5 27t-22.5 12 q-19 0 -32.5 -13t-19.5 -34t-8 -38.5t-2 -35.5q0 -47 15 -66t49 -19z"/>
<glyph glyph-name="ordfeminine" horiz-adv-x="394" unicode="ª" d="M235 529q-31 0 -52.5 -10.5t-21.5 -32.5q0 -23 24 -23q20 0 34.5 17.5t15.5 48.5zM45 464q0 55 51 88t146 35v20q0 27 -31 27q-25 0 -36 -20.5t-32 -20.5q-68 0 -68 40q0 34 37.5 58.5t104.5 24.5q133 0 133 -99q0 -12 -3 -60.5t-3 -57.5q0 -14 4.5 -20.5t10.5 -7 t10.5 -4t4.5 -13.5q0 -23 -19 -45.5t-59 -22.5q-49 0 -60 42q-34 -42 -96 -42q-95 0 -95 78z"/>
<glyph glyph-name="guillemotleft" horiz-adv-x="659" unicode="«" d="M414 275q97 -47 176 -81q10 -4 10 -15q0 -41 -13.5 -87t-40.5 -46q-30 0 -103.5 57.5t-101.5 92.5q-8 9 -8 20q0 6 1 20.5t3 39.5t3 46q1 22 19 36q49 38 137.5 92t114.5 54q12 0 12 -14q0 -70 -13 -104.5t-42 -52.5q-52 -32 -154 -58zM114 275q97 -47 176 -81 q10 -4 10 -15q0 -41 -13.5 -87t-40.5 -46q-30 0 -103.5 57.5t-101.5 92.5q-8 9 -8 20q0 6 1 20.5t3 39.5t3 46q1 22 19 36q49 38 137.5 92t114.5 54q12 0 12 -14q0 -70 -13 -104.5t-42 -52.5q-52 -32 -154 -58z"/>
<glyph glyph-name="logicalnot" horiz-adv-x="613" unicode="¬" d="M507 50q-53 0 -73 14t-20 53q0 8 1 22t2 35.5t2 34.5h-372q-11 0 -11 11l3 54q2 32 16 51t56 19h426q16 0 16 -14l-17 -260q-1 -13 -5.5 -16.5t-23.5 -3.5z"/>
<glyph glyph-name="uni00AD" horiz-adv-x="462" unicode="­" d="M331 209h-272q-11 0 -11 11l3 54q2 32 16 51t56 19h272q16 0 16 -14l-4 -54q-3 -34 -18.5 -50.5t-57.5 -16.5z"/>
<glyph glyph-name="registered" horiz-adv-x="803" unicode="®" d="M407 464q-14 0 -32 -3q0 -11 -1 -25t-2 -34t-2 -34q18 -5 32 -5q53 0 53 58q0 23 -11 33t-37 10zM347 163h-26q-62 0 -62 47q0 16 10 154q5 77 10.5 116t10.5 50t13 11q19 0 60 3t54 3q67 0 101 -32t34 -87q0 -91 -69 -124l45 -64q25 -35 25 -43q0 -9 -23.5 -24 t-50.5 -15q-31 0 -50 34.5t-33 95.5q-13 0 -31 4q-8 -115 -10 -122t-8 -7zM445 721q165 0 244.5 -87t79.5 -238q0 -180 -105.5 -293t-296.5 -113q-166 0 -247.5 87.5t-81.5 238.5q0 179 108 292t299 113zM377 86q76 0 133.5 25t91 68.5t50 97t16.5 115.5q0 234 -232 234 q-148 0 -222.5 -88.5t-74.5 -218.5q0 -117 62 -175t176 -58z"/>
<glyph glyph-name="macron" horiz-adv-x="381" unicode="¯" d="M293 618h-272q-11 0 -11 11q0 23 1.5 35.5t8 29t22 24t41.5 7.5h272q16 0 16 -14q0 -48 -15 -70.5t-63 -22.5z"/>
<glyph glyph-name="degree" horiz-adv-x="380" unicode="°" d="M217 622q-30 0 -43.5 -18.5t-13.5 -42.5q0 -41 42 -41q54 0 54 62q0 40 -39 40zM191 426q-141 0 -141 125q0 70 42 117.5t134 47.5q140 0 140 -124q0 -22 -4 -42.5t-15.5 -44t-30 -40t-51 -28t-74.5 -11.5z"/>
<glyph glyph-name="plusminus" horiz-adv-x="513" unicode="±" d="M368 0h-342q-11 0 -11 11q0 7 2 41q2 32 16 51t56 19h342q16 0 16 -14l-3 -41q-3 -34 -18.5 -50.5t-57.5 -16.5zM290 164q-58 0 -79.5 23t-21.5 72q0 23 5 78h-133q-11 0 -11 11q0 7 2 41q2 32 16 51t56 19h80q9 111 11 144q1 21 4.5 25t18.5 4q58 0 80 -22.5t22 -68.5 q0 -26 -5 -82h131q16 0 16 -14l-3 -41q-3 -34 -18.5 -50.5t-57.5 -16.5h-79l-12 -153q-1 -12 -5 -16t-17 -4z"/>
<glyph glyph-name="twosuperior" horiz-adv-x="318" unicode="²" d="M311 635q0 -16 -6.5 -32.5t-18.5 -31.5t-24 -27t-30 -24.5t-28.5 -19.5t-26.5 -16.5t-18 -10.5h135q7 0 7 -6l-2 -42q-1 -15 -12 -22.5t-42 -7.5h-168q-23 0 -32 7.5t-9 25.5v42q0 4 3 10q7 9 50.5 33.5t81 51t37.5 46.5q0 27 -32 27q-16 0 -24.5 -8t-9.5 -18t-5.5 -18 t-13.5 -8q-70 0 -70 48q0 43 40 64.5t96 21.5q66 0 94 -25t28 -60z"/>
<glyph glyph-name="threesuperior" horiz-adv-x="297" unicode="³" d="M162 648q-26 0 -32 -20q-2 -6 -8 -6q-65 0 -65 40q0 26 32 42t81 16q117 0 117 -80q0 -42 -46 -71q45 -22 45 -61q0 -44 -41 -80.5t-124 -36.5q-94 0 -94 54q0 52 54 52q8 0 9 -5q6 -21 45 -21q20 0 32.5 6t16.5 12.5t4 12.5q0 12 -10.5 19t-23.5 8l-75 3q-7 0 -7 6l2 15 q2 13 4 19.5t9.5 12t20.5 5.5l51 2q32 2 32 27q0 29 -29 29z"/>
<glyph glyph-name="acute" horiz-adv-x="257" unicode="´" d="M61 615q-14 0 -32.5 17.5t-18.5 30.5q0 2 15 24.5t44 64t43 62.5q10 15 23 15q25 0 68.5 -22t43.5 -38q0 -20 -81.5 -87t-104.5 -67z"/>
<glyph glyph-name="mu" horiz-adv-x="600" unicode="µ" d="M240 465q0 -29 -10.5 -138t-10.5 -128q0 -34 17.5 -54.5t45.5 -20.5q41 0 67 43t32 117l20 246q1 12 5 16t17 4h36q58 0 80 -23t22 -72q0 -6 -30 -426q-1 -21 -4.5 -25t-17.5 -4h-38q-100 0 -104 79q-46 -89 -115 -89q-34 0 -59 23v-178q0 -12 -4.5 -16t-17.5 -4h-36 q-58 0 -80 23t-22 71q0 18 3 54.5t8 97.5t8 117q12 229 25 341q2 21 7 26t21 5h32q59 0 81 -21t22 -64z"/>
<glyph glyph-name="paragraph" horiz-adv-x="588" unicode="¶" d="M532 712q12 0 12 -12q0 -9 -4.5 -65.5t-11.5 -137.5t-10 -123l-26 -354q-1 -12 -5.5 -16t-18.5 -4q-39 0 -54.5 23t-15.5 70q0 20 8.5 135t18.5 244t12 161h-38q0 -9 -3.5 -49t-9 -103.5t-8.5 -106.5l-26 -354q-1 -12 -5.5 -16t-18.5 -4q-39 0 -54.5 23t-15.5 70 q0 20 2.5 53.5t6 80.5t5.5 79q-19 -4 -46 -4q-96 0 -141 51.5t-45 140.5q0 104 58.5 165t165.5 61q47 0 137.5 -4t130.5 -4z"/>
<glyph glyph-name="periodcentered" horiz-adv-x="260" unicode="·" d="M137 367q78 0 78 -78q0 -25 -6.5 -47.5t-30 -42.5t-61.5 -20q-78 0 -78 82q0 45 23 75.5t75 30.5z"/>
<glyph glyph-name="cedilla" horiz-adv-x="230" unicode="¸" d="M133 24l-9 -64q96 0 96 -65q0 -42 -34 -68.5t-88 -26.5q-32 0 -60 10.5t-28 38.5q0 14 6 28t13 14q2 0 19.5 -13.5t38.5 -13.5q34 0 34 21q0 18 -37.5 30.5t-37.5 14.5q0 15 10 50t18 49z"/>
<glyph glyph-name="onesuperior" horiz-adv-x="214" unicode="¹" d="M76 694q18 12 25 16h47q47 0 47 -38q0 -14 -9.5 -142t-9.5 -133q0 -7 -7 -7h-45q-26 0 -36 10.5t-10 34.5q0 41 14 181q-7 -10 -22 -10q-16 0 -25.5 18.5t-9.5 37.5q0 4 41 32z"/>
<glyph glyph-name="ordmasculine" horiz-adv-x="394" unicode="º" d="M223 628q-60 0 -60 -81q0 -74 42 -74q32 0 45.5 30.5t13.5 62.5q0 62 -41 62zM196 386q-147 0 -147 144q0 80 43 132.5t140 52.5q147 0 147 -135q0 -32 -8 -62t-26 -61.5t-56.5 -51t-92.5 -19.5z"/>
<glyph glyph-name="guillemotright" horiz-adv-x="667" unicode="»" d="M548 275q-121 50 -178 71q-10 4 -10 16q0 41 14 91.5t41 50.5q30 0 103.5 -57.5t101.5 -92.5q8 -11 8 -20q0 -4 -1 -19t-3 -41t-3 -46q-1 -22 -19 -36q-47 -37 -136.5 -91.5t-115.5 -54.5q-12 0 -12 14q0 65 13 96.5t42 50.5q62 41 155 68zM241 275q-121 50 -178 71 q-10 4 -10 16q0 41 14 91.5t41 50.5q30 0 103.5 -57.5t101.5 -92.5q8 -11 8 -20q0 -4 -1 -19t-3 -41t-3 -46q-1 -22 -19 -36q-47 -37 -136.5 -91.5t-115.5 -54.5q-12 0 -12 14q0 65 13 96.5t42 50.5q62 41 155 68z"/>
<glyph glyph-name="onequarter" horiz-adv-x="702" unicode="¼" d="M546 87h-125q-39 0 -39 26q50 207 51 207h40q25 0 35 -9.5t10 -30.5q0 -24 -28 -121h61l10 116q0 17 0.5 25.5t1.5 13.5t2.5 5.5t4.5 0.5h44q27 0 36.5 -10.5t9.5 -32.5q0 -24 -9 -145.5t-9 -124.5q0 -7 -7 -7h-45q-47 0 -47 38q0 2 3 49zM90 694q18 12 25 16h47 q47 0 47 -38q0 -14 -9.5 -142t-9.5 -133q0 -7 -7 -7h-45q-26 0 -36 10.5t-10 34.5q0 41 14 181q-7 -10 -22 -10q-16 0 -25.5 18.5t-9.5 37.5q0 4 41 32zM102 -13q-23 0 -29 8t-6 29q0 19 21 58q17 32 372 599q12 19 24 24t31 5q26 0 33 -8.5t7 -28.5q0 -18 -19 -54 q-11 -21 -382 -612q-12 -20 -52 -20z"/>
<glyph glyph-name="onehalf" horiz-adv-x="694" unicode="½" d="M654 235q0 -19 -9.5 -38t-22.5 -33.5t-32.5 -30t-33 -23.5t-32.5 -19t-22 -13h135q7 0 7 -6l-2 -42q-1 -15 -12 -22.5t-42 -7.5h-168q-23 0 -32 7.5t-9 25.5v42q0 11 43 34t86 51.5t43 50.5q0 27 -32 27q-16 0 -24.5 -8t-9.5 -18t-5.5 -18t-13.5 -8q-70 0 -70 48 q0 43 40 64.5t96 21.5q66 0 94 -25t28 -60zM90 694q18 12 25 16h47q47 0 47 -38q0 -14 -9.5 -142t-9.5 -133q0 -7 -7 -7h-45q-26 0 -36 10.5t-10 34.5q0 41 14 181q-7 -10 -22 -10q-16 0 -25.5 18.5t-9.5 37.5q0 4 41 32zM102 -13q-23 0 -29 8t-6 29q0 19 21 58 q17 32 372 599q12 19 24 24t31 5q26 0 33 -8.5t7 -28.5q0 -18 -19 -54q-11 -21 -382 -612q-12 -20 -52 -20z"/>
<glyph glyph-name="threequarters" horiz-adv-x="733" unicode="¾" d="M172 648q-26 0 -32 -20q-2 -6 -8 -6q-65 0 -65 40q0 26 32 42t81 16q117 0 117 -80q0 -42 -46 -71q45 -22 45 -61q0 -44 -41 -80.5t-124 -36.5q-94 0 -94 54q0 52 54 52q8 0 9 -5q6 -21 45 -21q20 0 32.5 6t16.5 12.5t4 12.5q0 12 -10.5 19t-23.5 8l-75 3q-7 0 -7 6l2 15 q2 13 4 19.5t9.5 12t20.5 5.5l51 2q32 2 32 27q0 29 -29 29zM579 87h-125q-39 0 -39 26q50 207 51 207h40q25 0 35 -9.5t10 -30.5q0 -24 -28 -121h61l10 116q0 17 0.5 25.5t1.5 13.5t2.5 5.5t4.5 0.5h44q27 0 36.5 -10.5t9.5 -32.5q0 -24 -9 -145.5t-9 -124.5q0 -7 -7 -7 h-45q-47 0 -47 38q0 2 3 49zM135 -13q-23 0 -29 8t-6 29q0 19 21 58q17 32 372 599q12 19 24 24t31 5q26 0 33 -8.5t7 -28.5q0 -18 -19 -54q-11 -21 -382 -612q-13 -20 -52 -20z"/>
<glyph glyph-name="questiondown" horiz-adv-x="525" unicode="¿" d="M211 287q6 14 10.5 17t14.5 3h36q73 0 73 -57q0 -26 -17.5 -52.5t-42.5 -49.5t-49.5 -46t-42 -49t-17.5 -51q0 -27 16.5 -46t49.5 -19q20 0 36 7.5t25 17.5t16 28.5t10 30.5t7 33q2 12 7 15t22 3q60 0 86 -21t26 -67q0 -63 -39 -105t-95 -58.5t-125 -16.5 q-108 0 -161.5 46t-53.5 132q0 49 26.5 94.5t60 75.5t70.5 67.5t51 67.5zM286 377q-78 0 -78 78q0 42 22 76t77 34q77 0 77 -82q0 -45 -23 -75.5t-75 -30.5z"/>
<glyph glyph-name="Agrave" d="M368 843q0 -18 -13 -40.5t-28 -22.5q-43 0 -112 29.5t-69 46.5q0 24 31.5 64t48.5 40q14 0 78 -53.5t64 -63.5zM319 563l-73 -264h115zM271 710h95q45 0 65.5 -28.5t33.5 -82.5q134 -540 134 -575q0 -24 -27 -24h-51q-42 0 -68 9.5t-40 33t-19 46t-10 65.5h-174l-33 -138 q-5 -16 -23 -16h-53q-37 0 -66 16.5t-29 49.5q0 61 93.5 308t132.5 317q8 14 14 16.5t25 2.5z" unicode="À"/>
<glyph glyph-name="Aacute" d="M332 780q-19 0 -32.5 22t-13.5 33q0 15 68 72t92 57q19 0 59 -34.5t40 -49.5q0 -22 -90.5 -61t-122.5 -39zM319 563l-73 -264h115zM271 710h95q45 0 65.5 -28.5t33.5 -82.5q134 -540 134 -575q0 -24 -27 -24h-51q-42 0 -68 9.5t-40 33t-19 46t-10 65.5h-174l-33 -138 q-5 -16 -23 -16h-53q-37 0 -66 16.5t-29 49.5q0 61 93.5 308t132.5 317q8 14 14 16.5t25 2.5z" unicode="Á"/>
<glyph glyph-name="Acircumflex" d="M451 780q-33 0 -111 82q-111 -82 -145 -82q-12 0 -31 18t-19 25q0 6 132 126q17 15 76 15q44 0 53 -15q100 -119 100 -126q0 -6 -21.5 -24.5t-33.5 -18.5zM319 563l-73 -264h115zM271 710h95q45 0 65.5 -28.5t33.5 -82.5q134 -540 134 -575q0 -24 -27 -24h-51 q-42 0 -68 9.5t-40 33t-19 46t-10 65.5h-174l-33 -138q-5 -16 -23 -16h-53q-37 0 -66 16.5t-29 49.5q0 61 93.5 308t132.5 317q8 14 14 16.5t25 2.5z" unicode="Â"/>
<glyph glyph-name="Atilde" d="M415 895q25 0 46 15t36 30t25 15q20 0 20 -39q0 -53 -37 -94.5t-106 -41.5q-31 0 -57.5 10t-41.5 22.5t-33.5 22.5t-36.5 10q-24 0 -42.5 -16.5t-32 -32.5t-23.5 -16q-20 0 -20 40q0 52 33.5 93.5t101.5 41.5q49 0 96 -30t72 -30zM319 563l-73 -264h115zM271 710h95 q45 0 65.5 -28.5t33.5 -82.5q134 -540 134 -575q0 -24 -27 -24h-51q-42 0 -68 9.5t-40 33t-19 46t-10 65.5h-174l-33 -138q-5 -16 -23 -16h-53q-37 0 -66 16.5t-29 49.5q0 61 93.5 308t132.5 317q8 14 14 16.5t25 2.5z" unicode="Ã"/>
<glyph glyph-name="Adieresis" d="M362 838q0 36 24 57t65 21q69 0 69 -58q0 -34 -24 -56t-66 -22q-68 0 -68 58zM134 838q0 36 24 57t65 21q69 0 69 -58q0 -34 -24 -56t-66 -22q-68 0 -68 58zM319 563l-73 -264h115zM271 710h95q45 0 65.5 -28.5t33.5 -82.5q134 -540 134 -575q0 -24 -27 -24h-51 q-42 0 -68 9.5t-40 33t-19 46t-10 65.5h-174l-33 -138q-5 -16 -23 -16h-53q-37 0 -66 16.5t-29 49.5q0 61 93.5 308t132.5 317q8 14 14 16.5t25 2.5z" unicode="Ä"/>
<glyph glyph-name="Aring" d="M336 882q-13 0 -19.5 -8.5t-6.5 -20.5q0 -25 22 -25q26 0 26 31q0 23 -22 23zM340 931q41 0 63.5 -18t22.5 -47q0 -31 -23 -58.5t-75 -27.5q-43 0 -64 19.5t-21 48.5q0 34 24.5 58.5t72.5 24.5zM319 563l-73 -264h115zM271 710h95q45 0 65.5 -28.5t33.5 -82.5 q134 -540 134 -575q0 -24 -27 -24h-51q-42 0 -68 9.5t-40 33t-19 46t-10 65.5h-174l-33 -138q-5 -16 -23 -16h-53q-37 0 -66 16.5t-29 49.5q0 61 93.5 308t132.5 317q8 14 14 16.5t25 2.5z" unicode="Å"/>
<glyph glyph-name="AE" horiz-adv-x="819" unicode="Æ" d="M357 563l-106 -264h106v264zM711 0h-225q-33 0 -55 7.5t-34 18t-18 33.5t-7 41t-1 54h-174l-50 -138q-7 -16 -25 -16h-53q-35 0 -60.5 14.5t-25.5 43.5q0 47 126.5 304t176.5 329q13 19 41 19h392q16 0 16 -14l-6 -59q-3 -34 -19 -50.5t-58 -16.5h-142q2 -14 17 -141h196 q16 0 16 -14l-5 -59q-3 -33 -20 -50t-58 -17h-111l17 -149h216q16 0 16 -14l-6 -59q-3 -34 -19 -50.5t-58 -16.5z"/>
<glyph glyph-name="Ccedilla" horiz-adv-x="618" unicode="Ç" d="M352 146q37 0 69 12t49.5 27t35.5 27t31 12q20 0 20 -30q0 -27 -15 -89q-10 -39 -63 -74.5t-138 -39.5l-4 -31q96 0 96 -65q0 -42 -34 -68.5t-88 -26.5q-32 0 -60 10.5t-28 38.5q0 14 6 28t13 14q2 0 19.5 -13.5t38.5 -13.5q34 0 34 21q0 18 -37.5 30.5t-37.5 14.5 q0 22 14 64q-103 14 -168 88t-65 224q0 47 6.5 94.5t28 108t56.5 105t98.5 75.5t147.5 31q113 0 171.5 -50.5t58.5 -129.5q0 -123 -144 -123q-21 0 -27 3.5t-6 14.5q-1 30 -1.5 42t-2.5 32t-5.5 27t-10 16.5t-17 12t-25.5 2.5q-44 0 -74.5 -27t-43.5 -71t-18 -80t-5 -73 q0 -91 30 -130.5t95 -39.5z"/>
<glyph glyph-name="Egrave" horiz-adv-x="501" unicode="È" d="M334 843q0 -18 -13 -40.5t-28 -22.5q-43 0 -112 29.5t-69 46.5q0 24 31.5 64t48.5 40q14 0 78 -53.5t64 -63.5zM385 0h-230q-104 0 -104 85q0 42 21 310t21 300q0 15 16 15h352q16 0 16 -14l-4 -59q-3 -34 -18.5 -50.5t-57.5 -16.5h-138l-10 -141h142q16 0 16 -14l-4 -59 q-3 -34 -18.5 -50.5t-57.5 -16.5h-87l-11 -149h220q16 0 16 -14l-4 -59q-3 -34 -18.5 -50.5t-57.5 -16.5z"/>
<glyph glyph-name="Eacute" horiz-adv-x="501" unicode="É" d="M298 780q-19 0 -32.5 22t-13.5 33q0 15 68 72t92 57q19 0 59 -34.5t40 -49.5q0 -22 -90.5 -61t-122.5 -39zM385 0h-230q-104 0 -104 85q0 42 21 310t21 300q0 15 16 15h352q16 0 16 -14l-4 -59q-3 -34 -18.5 -50.5t-57.5 -16.5h-138l-10 -141h142q16 0 16 -14l-4 -59 q-3 -34 -18.5 -50.5t-57.5 -16.5h-87l-11 -149h220q16 0 16 -14l-4 -59q-3 -34 -18.5 -50.5t-57.5 -16.5z"/>
<glyph glyph-name="Ecircumflex" horiz-adv-x="501" unicode="Ê" d="M417 780q-33 0 -111 82q-111 -82 -145 -82q-12 0 -31 18t-19 25q0 6 132 126q17 15 76 15q44 0 53 -15q100 -119 100 -126q0 -6 -21.5 -24.5t-33.5 -18.5zM385 0h-230q-104 0 -104 85q0 42 21 310t21 300q0 15 16 15h352q16 0 16 -14l-4 -59q-3 -34 -18.5 -50.5 t-57.5 -16.5h-138l-10 -141h142q16 0 16 -14l-4 -59q-3 -34 -18.5 -50.5t-57.5 -16.5h-87l-11 -149h220q16 0 16 -14l-4 -59q-3 -34 -18.5 -50.5t-57.5 -16.5z"/>
<glyph glyph-name="Edieresis" horiz-adv-x="501" unicode="Ë" d="M328 838q0 36 24 57t65 21q69 0 69 -58q0 -34 -24 -56t-66 -22q-68 0 -68 58zM100 838q0 36 24 57t65 21q69 0 69 -58q0 -34 -24 -56t-66 -22q-68 0 -68 58zM385 0h-230q-104 0 -104 85q0 42 21 310t21 300q0 15 16 15h352q16 0 16 -14l-4 -59q-3 -34 -18.5 -50.5 t-57.5 -16.5h-138l-10 -141h142q16 0 16 -14l-4 -59q-3 -34 -18.5 -50.5t-57.5 -16.5h-87l-11 -149h220q16 0 16 -14l-4 -59q-3 -34 -18.5 -50.5t-57.5 -16.5z"/>
<glyph glyph-name="Igrave" horiz-adv-x="314" unicode="Ì" d="M221 843q0 -18 -13 -40.5t-28 -22.5q-43 0 -112 29.5t-69 46.5q0 24 31.5 64t48.5 40q14 0 78 -53.5t64 -63.5zM210 0h-55q-104 0 -104 85q0 42 21 310t21 300q0 15 16 15h55q59 0 81 -24.5t22 -78.5q0 -19 -19 -291t-22 -301q-1 -15 -16 -15z"/>
<glyph glyph-name="Iacute" horiz-adv-x="314" unicode="Í" d="M185 780q-19 0 -32.5 22t-13.5 33q0 15 68 72t92 57q19 0 59 -34.5t40 -49.5q0 -22 -90.5 -61t-122.5 -39zM210 0h-55q-104 0 -104 85q0 42 21 310t21 300q0 15 16 15h55q59 0 81 -24.5t22 -78.5q0 -19 -19 -291t-22 -301q-1 -15 -16 -15z"/>
<glyph glyph-name="Icircumflex" horiz-adv-x="314" unicode="Î" d="M304 780q-33 0 -111 82q-111 -82 -145 -82q-12 0 -31 18t-19 25q0 6 132 126q17 15 76 15q44 0 53 -15q100 -119 100 -126q0 -6 -21.5 -24.5t-33.5 -18.5zM210 0h-55q-104 0 -104 85q0 42 21 310t21 300q0 15 16 15h55q59 0 81 -24.5t22 -78.5q0 -19 -19 -291t-22 -301 q-1 -15 -16 -15z"/>
<glyph glyph-name="Idieresis" horiz-adv-x="314" unicode="Ï" d="M215 838q0 36 24 57t65 21q69 0 69 -58q0 -34 -24 -56t-66 -22q-68 0 -68 58zM-13 838q0 36 24 57t65 21q69 0 69 -58q0 -34 -24 -56t-66 -22q-68 0 -68 58zM210 0h-55q-104 0 -104 85q0 42 21 310t21 300q0 15 16 15h55q59 0 81 -24.5t22 -78.5q0 -19 -19 -291t-22 -301 q-1 -15 -16 -15z"/>
<glyph glyph-name="Eth" horiz-adv-x="672" unicode="Ð" d="M273 299h-25q-4 -72 -11 -148q20 -3 47 -3q171 0 171 249q0 89 -26 128.5t-96 39.5q-5 0 -69 -4q-1 -24 -7 -127h80q16 0 16 -14l-4 -54q-3 -34 -18.5 -50.5t-57.5 -16.5zM98 695q0 15 17 15h24q166 9 197 9q168 0 234.5 -69t66.5 -231q0 -69 -10 -128.5t-35.5 -116 t-65 -96.5t-103.5 -64t-146 -24q-47 0 -74.5 1t-59 6.5t-48 16t-27.5 29t-11 46.5q0 39 14 210h-50q-11 0 -11 11l3 54q1 20 5 33t19.5 24.5t43.5 12.5q15 190 17 261z"/>
<glyph glyph-name="Ntilde" horiz-adv-x="688" unicode="Ñ" d="M474 895q25 0 46 15t36 30t25 15q20 0 20 -39q0 -53 -37 -94.5t-106 -41.5q-31 0 -57.5 10t-41.5 22.5t-33.5 22.5t-36.5 10q-24 0 -42.5 -16.5t-32 -32.5t-23.5 -16q-20 0 -20 40q0 52 33.5 93.5t101.5 41.5q48 0 95.5 -30t72.5 -30zM581 0h-82q-69 0 -90 42 q-21 44 -190 403q1 -82 3.5 -232.5t3.5 -197.5q0 -15 -16 -15h-55q-55 0 -79.5 22t-24.5 67q0 32 20 288q20 252 22 318q0 15 16 15h80q32 0 54 -6.5t35.5 -22.5t20 -27.5t15.5 -35.5q80 -201 156 -374q0 84 -1.5 243.5t-1.5 213.5q0 9 17 9h55q61 0 81 -23t20 -74 q0 -64 -18.5 -314.5t-22.5 -282.5q0 -16 -18 -16z"/>
<glyph glyph-name="Ograve" horiz-adv-x="711" unicode="Ò" d="M452 843q0 -18 -13 -40.5t-28 -22.5q-43 0 -112 29.5t-69 46.5q0 24 31.5 64t48.5 40q14 0 78 -53.5t64 -63.5zM384 566q-49 0 -83 -26t-49 -68t-20.5 -78t-5.5 -73q0 -175 117 -175q43 0 74.5 28.5t46.5 73t21.5 84t6.5 76.5q0 158 -108 158zM405 721q143 0 208 -78 t65 -227q0 -37 -4 -74t-14.5 -80t-27 -81t-44 -73.5t-63.5 -61t-87.5 -41t-113.5 -15.5q-284 0 -284 317q0 65 11 123t37.5 112.5t67.5 93t104.5 62t144.5 23.5z"/>
<glyph glyph-name="Oacute" horiz-adv-x="711" unicode="Ó" d="M416 780q-19 0 -32.5 22t-13.5 33q0 15 68 72t92 57q19 0 59 -34.5t40 -49.5q0 -22 -90.5 -61t-122.5 -39zM384 566q-49 0 -83 -26t-49 -68t-20.5 -78t-5.5 -73q0 -175 117 -175q43 0 74.5 28.5t46.5 73t21.5 84t6.5 76.5q0 158 -108 158zM405 721q143 0 208 -78t65 -227 q0 -37 -4 -74t-14.5 -80t-27 -81t-44 -73.5t-63.5 -61t-87.5 -41t-113.5 -15.5q-284 0 -284 317q0 65 11 123t37.5 112.5t67.5 93t104.5 62t144.5 23.5z"/>
<glyph glyph-name="Ocircumflex" horiz-adv-x="711" unicode="Ô" d="M535 780q-33 0 -111 82q-111 -82 -145 -82q-12 0 -31 18t-19 25q0 6 132 126q17 15 76 15q44 0 53 -15q100 -119 100 -126q0 -6 -21.5 -24.5t-33.5 -18.5zM384 566q-49 0 -83 -26t-49 -68t-20.5 -78t-5.5 -73q0 -175 117 -175q43 0 74.5 28.5t46.5 73t21.5 84t6.5 76.5 q0 158 -108 158zM405 721q143 0 208 -78t65 -227q0 -37 -4 -74t-14.5 -80t-27 -81t-44 -73.5t-63.5 -61t-87.5 -41t-113.5 -15.5q-284 0 -284 317q0 65 11 123t37.5 112.5t67.5 93t104.5 62t144.5 23.5z"/>
<glyph glyph-name="Otilde" horiz-adv-x="711" unicode="Õ" d="M499 895q25 0 46 15t36 30t25 15q20 0 20 -39q0 -53 -37 -94.5t-106 -41.5q-31 0 -57.5 10t-41.5 22.5t-33.5 22.5t-36.5 10q-24 0 -42.5 -16.5t-32 -32.5t-23.5 -16q-20 0 -20 40q0 52 33.5 93.5t101.5 41.5q49 0 96 -30t72 -30zM384 566q-49 0 -83 -26t-49 -68 t-20.5 -78t-5.5 -73q0 -175 117 -175q43 0 74.5 28.5t46.5 73t21.5 84t6.5 76.5q0 158 -108 158zM405 721q143 0 208 -78t65 -227q0 -37 -4 -74t-14.5 -80t-27 -81t-44 -73.5t-63.5 -61t-87.5 -41t-113.5 -15.5q-284 0 -284 317q0 65 11 123t37.5 112.5t67.5 93t104.5 62 t144.5 23.5z"/>
<glyph glyph-name="Odieresis" horiz-adv-x="711" unicode="Ö" d="M446 838q0 36 24 57t65 21q69 0 69 -58q0 -34 -24 -56t-66 -22q-68 0 -68 58zM218 838q0 36 24 57t65 21q69 0 69 -58q0 -34 -24 -56t-66 -22q-68 0 -68 58zM384 566q-49 0 -83 -26t-49 -68t-20.5 -78t-5.5 -73q0 -175 117 -175q43 0 74.5 28.5t46.5 73t21.5 84t6.5 76.5 q0 158 -108 158zM405 721q143 0 208 -78t65 -227q0 -37 -4 -74t-14.5 -80t-27 -81t-44 -73.5t-63.5 -61t-87.5 -41t-113.5 -15.5q-284 0 -284 317q0 65 11 123t37.5 112.5t67.5 93t104.5 62t144.5 23.5z"/>
<glyph glyph-name="multiply" horiz-adv-x="497" unicode="×" d="M84 103q-16 0 -36 31t-20 50q0 30 36 66q21 21 97 83l-88 137q-10 18 -10 23q0 9 28.5 33t54.5 24q34 0 51 -26q13 -21 35.5 -55t31.5 -49l134 115q18 15 22 15q14 0 35 -34t21 -51q0 -28 -34 -62q-18 -19 -107 -92q90 -139 90 -149q0 -17 -31.5 -38t-51.5 -21 q-35 0 -53 29l-58 91q-20 -17 -64.5 -54.5t-68.5 -58.5q-8 -7 -14 -7z"/>
<glyph glyph-name="Oslash" horiz-adv-x="711" unicode="Ø" d="M384 566q-49 0 -83 -26t-49 -68t-20.5 -78t-5.5 -73q0 -27 3 -49q88 129 198 285q-18 9 -43 9zM489 453q-56 -83 -202 -294q23 -13 56 -13q43 0 74.5 28.5t46.5 73t21.5 84t6.5 76.5q0 24 -3 45zM405 721q71 0 123 -20l35 49q21 30 66 30q20 0 29.5 -10t9.5 -22 q0 -21 -54 -107q64 -77 64 -225q0 -37 -4 -74t-14.5 -80t-27 -81t-44 -73.5t-63.5 -61t-87.5 -41t-113.5 -15.5q-79 0 -137 25l-38 -55q-18 -27 -66 -27q-36 0 -36 31q0 29 54 117q-61 77 -61 226q0 65 11 123t37.5 112.5t67.5 93t104.5 62t144.5 23.5z"/>
<glyph glyph-name="Ugrave" horiz-adv-x="659" unicode="Ù" d="M407 843q0 -18 -13 -40.5t-28 -22.5q-43 0 -112 29.5t-69 46.5q0 24 31.5 64t48.5 40q14 0 78 -53.5t64 -63.5zM603 326q-3 -31 -7 -56.5t-14 -62t-23.5 -64.5t-37 -58t-53.5 -50t-73.5 -32.5t-96.5 -12.5q-123 0 -182 65.5t-59 171.5q0 53 16 246.5t17 206.5q1 30 17 30 h55q59 0 81 -24.5t22 -78.5q0 -4 -10.5 -158.5t-10.5 -174.5q0 -24 1.5 -40t7.5 -39.5t22 -36t41 -12.5q97 0 111 197q24 297 24 336q0 20 3 25.5t13 5.5h55q61 0 79.5 -19t18.5 -53q0 -142 -17 -312z"/>
<glyph glyph-name="Uacute" horiz-adv-x="659" unicode="Ú" d="M371 780q-19 0 -32.5 22t-13.5 33q0 15 68 72t92 57q19 0 59 -34.5t40 -49.5q0 -22 -90.5 -61t-122.5 -39zM603 326q-3 -31 -7 -56.5t-14 -62t-23.5 -64.5t-37 -58t-53.5 -50t-73.5 -32.5t-96.5 -12.5q-123 0 -182 65.5t-59 171.5q0 53 16 246.5t17 206.5q1 30 17 30h55 q59 0 81 -24.5t22 -78.5q0 -4 -10.5 -158.5t-10.5 -174.5q0 -24 1.5 -40t7.5 -39.5t22 -36t41 -12.5q97 0 111 197q24 297 24 336q0 20 3 25.5t13 5.5h55q61 0 79.5 -19t18.5 -53q0 -142 -17 -312z"/>
<glyph glyph-name="Ucircumflex" horiz-adv-x="659" unicode="Û" d="M490 780q-33 0 -111 82q-111 -82 -145 -82q-12 0 -31 18t-19 25q0 6 132 126q17 15 76 15q44 0 53 -15q100 -119 100 -126q0 -6 -21.5 -24.5t-33.5 -18.5zM603 326q-3 -31 -7 -56.5t-14 -62t-23.5 -64.5t-37 -58t-53.5 -50t-73.5 -32.5t-96.5 -12.5q-123 0 -182 65.5 t-59 171.5q0 53 16 246.5t17 206.5q1 30 17 30h55q59 0 81 -24.5t22 -78.5q0 -4 -10.5 -158.5t-10.5 -174.5q0 -24 1.5 -40t7.5 -39.5t22 -36t41 -12.5q97 0 111 197q24 297 24 336q0 20 3 25.5t13 5.5h55q61 0 79.5 -19t18.5 -53q0 -142 -17 -312z"/>
<glyph glyph-name="Udieresis" horiz-adv-x="659" unicode="Ü" d="M401 838q0 36 24 57t65 21q69 0 69 -58q0 -34 -24 -56t-66 -22q-68 0 -68 58zM173 838q0 36 24 57t65 21q69 0 69 -58q0 -34 -24 -56t-66 -22q-68 0 -68 58zM603 326q-3 -31 -7 -56.5t-14 -62t-23.5 -64.5t-37 -58t-53.5 -50t-73.5 -32.5t-96.5 -12.5q-123 0 -182 65.5 t-59 171.5q0 53 16 246.5t17 206.5q1 30 17 30h55q59 0 81 -24.5t22 -78.5q0 -4 -10.5 -158.5t-10.5 -174.5q0 -24 1.5 -40t7.5 -39.5t22 -36t41 -12.5q97 0 111 197q24 297 24 336q0 20 3 25.5t13 5.5h55q61 0 79.5 -19t18.5 -53q0 -142 -17 -312z"/>
<glyph glyph-name="Yacute" horiz-adv-x="609" unicode="Ý" d="M330 780q-19 0 -32.5 22t-13.5 33q0 15 68 72t92 57q19 0 59 -34.5t40 -49.5q0 -22 -90.5 -61t-122.5 -39zM351 0h-55q-58 0 -81 22.5t-23 73.5q0 42 11 173q-25 46 -57 117q-8 19 -29 66t-35 79t-30 69.5t-24.5 60.5t-8.5 30q0 21 67 21q40 0 67 -7.5t42.5 -24.5 t23 -32.5t15.5 -42.5q35 -118 77 -248q56 118 75.5 166t55.5 158q6 18 12.5 24t20.5 6q11 0 28 -1.5t45 -7t47 -19.5t19 -35q0 -49 -84.5 -198.5t-148.5 -216.5q-4 -129 -14 -218q-1 -15 -16 -15z"/>
<glyph glyph-name="Thorn" horiz-adv-x="598" unicode="Þ" d="M317 481q-29 0 -67 -6l-15 -226q35 -8 62 -8q43 0 69.5 29t33.5 60t7 63q0 45 -20.5 66.5t-69.5 21.5zM199 0h-44q-55 0 -79.5 22t-24.5 67q0 32 20 288q22 282 23 348q0 15 17 15h55q57 0 74.5 -21t17.5 -65q0 -17 -1 -28q50 5 85 5q235 0 235 -229q0 -127 -68.5 -214 t-204.5 -87q-45 0 -80 11q-5 -78 -8.5 -95t-16.5 -17z"/>
<glyph glyph-name="germandbls" horiz-adv-x="634" unicode="ß" d="M559 642q0 -40 -25.5 -86t-51.5 -85t-26 -61t24 -41.5t52 -34.5t52 -52t24 -91q0 -86 -54 -143.5t-146 -57.5q-62 0 -109.5 24t-47.5 46q0 90 31 90q10 0 41.5 -18.5t59.5 -18.5q27 0 45 13.5t18 40.5q0 23 -15 43t-36 35.5t-42.5 32.5t-36.5 43.5t-15 59.5q0 35 16 68.5 t34.5 54.5t34.5 44t16 38t-14 24.5t-35 9.5q-92 0 -121 -188q-14 -94 -35 -412q-1 -12 -5 -16t-17 -4h-41q-42 0 -59 6t-26.5 30.5t-9.5 78.5q0 73 10.5 181t29.5 194q30 138 93.5 201.5t199.5 63.5q187 0 187 -113z"/>
<glyph glyph-name="agrave" horiz-adv-x="563" unicode="à" d="M299 615q-23 0 -78.5 65t-55.5 88q0 17 42 39t68 22q15 0 21 -15q11 -28 27 -66t24.5 -59.5t8.5 -25.5q0 -12 -22 -30t-35 -18zM322 237q-59 0 -99 -18t-40 -55q0 -41 46 -41q35 0 62 30t31 84zM11 123q0 90 82 141t238 55q2 28 2 37q0 35 -13.5 52.5t-48.5 17.5 q-27 0 -42.5 -11.5t-21.5 -25.5t-13 -44q-4 -14 -31 -14q-102 0 -102 77q0 66 59.5 109t169.5 43q211 0 211 -176q0 -15 -8.5 -99t-8.5 -99q0 -29 15 -41t29.5 -15t14.5 -10q0 -52 -28.5 -91t-91.5 -39q-88 0 -104 87q-61 -87 -163 -87q-65 0 -105 32t-40 101z"/>
<glyph glyph-name="aacute" horiz-adv-x="563" unicode="á" d="M299 615q-14 0 -32.5 17.5t-18.5 30.5q0 2 15 24.5t44 64t43 62.5q10 15 23 15q25 0 68.5 -22t43.5 -38q0 -20 -81.5 -87t-104.5 -67zM322 237q-59 0 -99 -18t-40 -55q0 -41 46 -41q35 0 62 30t31 84zM11 123q0 90 82 141t238 55q2 28 2 37q0 35 -13.5 52.5t-48.5 17.5 q-27 0 -42.5 -11.5t-21.5 -25.5t-13 -44q-4 -14 -31 -14q-102 0 -102 77q0 66 59.5 109t169.5 43q211 0 211 -176q0 -15 -8.5 -99t-8.5 -99q0 -29 15 -41t29.5 -15t14.5 -10q0 -52 -28.5 -91t-91.5 -39q-88 0 -104 87q-61 -87 -163 -87q-65 0 -105 32t-40 101z"/>
<glyph glyph-name="acircumflex" horiz-adv-x="563" unicode="â" d="M426 615q-30 0 -101 102q-104 -102 -135 -102q-12 0 -31 18t-19 25q0 10 132 156q13 15 66 15q44 0 53 -15q90 -149 90 -156q0 -6 -21.5 -24.5t-33.5 -18.5zM322 237q-59 0 -99 -18t-40 -55q0 -41 46 -41q35 0 62 30t31 84zM11 123q0 90 82 141t238 55q2 28 2 37 q0 35 -13.5 52.5t-48.5 17.5q-27 0 -42.5 -11.5t-21.5 -25.5t-13 -44q-4 -14 -31 -14q-102 0 -102 77q0 66 59.5 109t169.5 43q211 0 211 -176q0 -15 -8.5 -99t-8.5 -99q0 -29 15 -41t29.5 -15t14.5 -10q0 -52 -28.5 -91t-91.5 -39q-88 0 -104 87q-61 -87 -163 -87 q-65 0 -105 32t-40 101z"/>
<glyph glyph-name="atilde" horiz-adv-x="563" unicode="ã" d="M396 720q32 0 65 30t42 30q20 0 20 -39q0 -53 -37 -94.5t-106 -41.5q-40 0 -70.5 16.5t-53.5 32.5t-45 16q-24 0 -42.5 -16t-32 -32.5t-23.5 -16.5q-20 0 -20 40q0 52 33.5 93.5t101.5 41.5q38 0 68 -15t53.5 -30t46.5 -15zM322 237q-59 0 -99 -18t-40 -55q0 -41 46 -41 q35 0 62 30t31 84zM11 123q0 90 82 141t238 55q2 28 2 37q0 35 -13.5 52.5t-48.5 17.5q-27 0 -42.5 -11.5t-21.5 -25.5t-13 -44q-4 -14 -31 -14q-102 0 -102 77q0 66 59.5 109t169.5 43q211 0 211 -176q0 -15 -8.5 -99t-8.5 -99q0 -29 15 -41t29.5 -15t14.5 -10 q0 -52 -28.5 -91t-91.5 -39q-88 0 -104 87q-61 -87 -163 -87q-65 0 -105 32t-40 101z"/>
<glyph glyph-name="adieresis" horiz-adv-x="563" unicode="ä" d="M348 677q0 36 24 57t65 21q69 0 69 -58q0 -34 -24 -56t-66 -22q-68 0 -68 58zM120 677q0 36 24 57t65 21q69 0 69 -58q0 -34 -24 -56t-66 -22q-68 0 -68 58zM322 237q-59 0 -99 -18t-40 -55q0 -41 46 -41q35 0 62 30t31 84zM11 123q0 90 82 141t238 55q2 28 2 37 q0 35 -13.5 52.5t-48.5 17.5q-27 0 -42.5 -11.5t-21.5 -25.5t-13 -44q-4 -14 -31 -14q-102 0 -102 77q0 66 59.5 109t169.5 43q211 0 211 -176q0 -15 -8.5 -99t-8.5 -99q0 -29 15 -41t29.5 -15t14.5 -10q0 -52 -28.5 -91t-91.5 -39q-88 0 -104 87q-61 -87 -163 -87 q-65 0 -105 32t-40 101z"/>
<glyph glyph-name="aring" horiz-adv-x="563" unicode="å" d="M308 707q-13 0 -19.5 -8.5t-6.5 -20.5q0 -25 22 -25q26 0 26 31q0 23 -22 23zM312 756q41 0 63.5 -18t22.5 -47q0 -31 -23 -58.5t-75 -27.5q-43 0 -64 19.5t-21 48.5q0 33 24.5 58t72.5 25zM322 237q-59 0 -99 -18t-40 -55q0 -41 46 -41q35 0 62 30t31 84zM11 123 q0 90 82 141t238 55q2 28 2 37q0 35 -13.5 52.5t-48.5 17.5q-27 0 -42.5 -11.5t-21.5 -25.5t-13 -44q-4 -14 -31 -14q-102 0 -102 77q0 66 59.5 109t169.5 43q211 0 211 -176q0 -15 -8.5 -99t-8.5 -99q0 -29 15 -41t29.5 -15t14.5 -10q0 -52 -28.5 -91t-91.5 -39 q-88 0 -104 87q-61 -87 -163 -87q-65 0 -105 32t-40 101z"/>
<glyph glyph-name="ae" horiz-adv-x="827" unicode="æ" d="M322 237q-59 0 -99 -18t-40 -55q0 -41 50 -41q86 0 89 114zM586 427q-72 0 -88 -130q63 1 101 21.5t38 56.5q0 22 -13.5 37t-37.5 15zM11 123q0 90 82.5 141t238.5 55q0 12 0.5 25.5t0.5 15.5q0 66 -59 66q-30 0 -47 -11.5t-21.5 -26t-14.5 -26t-29 -11.5q-101 0 -101 74 q0 60 60 97.5t156 37.5q120 0 159 -72q76 72 191 72q92 0 136.5 -42t44.5 -109q0 -38 -15 -69t-37 -50.5t-54 -34t-59.5 -21.5t-61 -11t-51 -5t-35.5 -1q10 -102 95 -102q24 0 40.5 8.5t23.5 19t15.5 19t17.5 8.5q11 0 26 -4.5t32.5 -22t17.5 -44.5q0 -37 -31.5 -62.5 t-74 -36t-90.5 -10.5q-134 0 -199 81q-31 -35 -87.5 -58t-118.5 -23q-70 0 -110.5 32.5t-40.5 100.5z"/>
<glyph glyph-name="ccedilla" horiz-adv-x="509" unicode="ç" d="M294 123q34 0 62.5 13t46.5 26t26 13q23 0 23 -30q0 -14 -11.5 -46t-20.5 -43q-14 -17 -49 -37.5t-84 -26.5l-4 -32q96 0 96 -65q0 -42 -34 -68.5t-88 -26.5q-32 0 -60 10.5t-28 38.5q0 14 6 28t13 14q2 0 19.5 -13.5t38.5 -13.5q34 0 34 21q0 18 -37.5 30.5t-37.5 14.5 q0 20 13 63q-80 11 -134 70t-54 177q0 37 5 73.5t23 83t46.5 81t80.5 58.5t120 24q93 0 141 -40t48 -104q0 -105 -130 -105q-16 0 -21 2.5t-5 11.5q0 31 -1 44.5t-5.5 30t-14 22t-25.5 5.5q-29 0 -49 -19t-28.5 -50.5t-11.5 -56.5t-3 -51q0 -70 22 -98.5t72 -28.5z"/>
<glyph glyph-name="egrave" horiz-adv-x="532" unicode="è" d="M325 615q-23 0 -78.5 65t-55.5 88q0 17 42 39t68 22q15 0 21 -15q11 -28 27 -66t24.5 -59.5t8.5 -25.5q0 -12 -22 -30t-35 -18zM291 427q-72 0 -88 -130q63 1 101 21.5t38 56.5q0 22 -13.5 37t-37.5 15zM272 -10q-47 0 -87.5 11.5t-77 37t-58 73t-21.5 112.5q0 36 5.5 74 t25 87t50 86t87 63t129.5 26q98 0 143 -41.5t45 -108.5q0 -52 -27 -90t-63.5 -57t-85.5 -30.5t-78.5 -13.5t-58.5 -2q0 -43 23.5 -72.5t71.5 -29.5q24 0 40.5 8.5t23.5 19t15.5 19t17.5 8.5q11 0 26 -4.5t32.5 -22t17.5 -44.5q0 -37 -31.5 -62.5t-74 -36t-90.5 -10.5z"/>
<glyph glyph-name="eacute" horiz-adv-x="532" unicode="é" d="M335 615q-14 0 -32.5 17.5t-18.5 30.5q0 2 15 24.5t44 64t43 62.5q10 15 23 15q25 0 68.5 -22t43.5 -38q0 -20 -81.5 -87t-104.5 -67zM291 427q-72 0 -88 -130q63 1 101 21.5t38 56.5q0 22 -13.5 37t-37.5 15zM272 -10q-47 0 -87.5 11.5t-77 37t-58 73t-21.5 112.5 q0 36 5.5 74t25 87t50 86t87 63t129.5 26q98 0 143 -41.5t45 -108.5q0 -52 -27 -90t-63.5 -57t-85.5 -30.5t-78.5 -13.5t-58.5 -2q0 -43 23.5 -72.5t71.5 -29.5q24 0 40.5 8.5t23.5 19t15.5 19t17.5 8.5q11 0 26 -4.5t32.5 -22t17.5 -44.5q0 -37 -31.5 -62.5t-74 -36 t-90.5 -10.5z"/>
<glyph glyph-name="ecircumflex" horiz-adv-x="532" unicode="ê" d="M448 615q-30 0 -101 102q-104 -102 -135 -102q-12 0 -31 18t-19 25q0 10 132 156q13 15 66 15q44 0 53 -15q90 -149 90 -156q0 -6 -21.5 -24.5t-33.5 -18.5zM291 427q-72 0 -88 -130q63 1 101 21.5t38 56.5q0 22 -13.5 37t-37.5 15zM272 -10q-47 0 -87.5 11.5t-77 37 t-58 73t-21.5 112.5q0 36 5.5 74t25 87t50 86t87 63t129.5 26q98 0 143 -41.5t45 -108.5q0 -52 -27 -90t-63.5 -57t-85.5 -30.5t-78.5 -13.5t-58.5 -2q0 -43 23.5 -72.5t71.5 -29.5q24 0 40.5 8.5t23.5 19t15.5 19t17.5 8.5q11 0 26 -4.5t32.5 -22t17.5 -44.5 q0 -37 -31.5 -62.5t-74 -36t-90.5 -10.5z"/>
<glyph glyph-name="edieresis" horiz-adv-x="532" unicode="ë" d="M369 677q0 36 24 57t65 21q69 0 69 -58q0 -34 -24 -56t-66 -22q-68 0 -68 58zM141 677q0 36 24 57t65 21q69 0 69 -58q0 -34 -24 -56t-66 -22q-68 0 -68 58zM291 427q-72 0 -88 -130q63 1 101 21.5t38 56.5q0 22 -13.5 37t-37.5 15zM272 -10q-47 0 -87.5 11.5t-77 37 t-58 73t-21.5 112.5q0 36 5.5 74t25 87t50 86t87 63t129.5 26q98 0 143 -41.5t45 -108.5q0 -52 -27 -90t-63.5 -57t-85.5 -30.5t-78.5 -13.5t-58.5 -2q0 -43 23.5 -72.5t71.5 -29.5q24 0 40.5 8.5t23.5 19t15.5 19t17.5 8.5q11 0 26 -4.5t32.5 -22t17.5 -44.5 q0 -37 -31.5 -62.5t-74 -36t-90.5 -10.5z"/>
<glyph glyph-name="igrave" horiz-adv-x="281" unicode="ì" d="M147 615q-23 0 -78.5 65t-55.5 88q0 17 42 39t68 22q15 0 21 -15q11 -28 27 -66t24.5 -59.5t8.5 -25.5q0 -12 -22 -30t-35 -18zM180 0h-36q-58 0 -80 23t-22 72q0 6 30 426q1 21 4 25t17 4h39q58 0 80 -22.5t22 -68.5q0 -40 -32 -439q-1 -12 -5 -16t-17 -4z"/>
<glyph glyph-name="iacute" horiz-adv-x="281" unicode="í" d="M147 615q-14 0 -32.5 17.5t-18.5 30.5q0 2 15 24.5t44 64t43 62.5q10 15 23 15q25 0 68.5 -22t43.5 -38q0 -20 -81.5 -87t-104.5 -67zM180 0h-36q-58 0 -80 23t-22 72q0 6 30 426q1 21 4 25t17 4h39q58 0 80 -22.5t22 -68.5q0 -40 -32 -439q-1 -12 -5 -16t-17 -4z"/>
<glyph glyph-name="icircumflex" horiz-adv-x="281" unicode="î" d="M260 615q-30 0 -101 102q-104 -102 -135 -102q-12 0 -31 18t-19 25q0 10 132 156q13 15 66 15q44 0 53 -15q90 -149 90 -156q0 -6 -21.5 -24.5t-33.5 -18.5zM180 0h-36q-58 0 -80 23t-22 72q0 6 30 426q1 21 4 25t17 4h39q58 0 80 -22.5t22 -68.5q0 -40 -32 -439 q-1 -12 -5 -16t-17 -4z"/>
<glyph glyph-name="idieresis" horiz-adv-x="281" unicode="ï" d="M209 677q0 36 24 57t65 21q69 0 69 -58q0 -34 -24 -56t-66 -22q-68 0 -68 58zM-19 677q0 36 24 57t65 21q69 0 69 -58q0 -34 -24 -56t-66 -22q-68 0 -68 58zM180 0h-36q-58 0 -80 23t-22 72q0 6 30 426q1 21 4 25t17 4h39q58 0 80 -22.5t22 -68.5q0 -40 -32 -439 q-1 -12 -5 -16t-17 -4z"/>
<glyph glyph-name="eth" horiz-adv-x="603" unicode="ð" d="M282 336q-39 0 -58 -25.5t-19 -64.5q0 -42 20 -71t59 -29q36 0 56 26t20 70q0 40 -18 67t-60 27zM530 583q39 -88 39 -204q0 -54 -8 -105t-29 -104t-54 -91.5t-88 -63.5t-125 -25q-119 0 -184 65t-65 172q0 59 20 105t53 72t71 39t78 13q28 0 52 -7t39 -16t26.5 -20 t16 -17t6.5 -10q10 14 10 51q0 43 -14 84q-113 -46 -114 -46q-8 0 -17.5 29.5t-9.5 47.5q0 39 43 55q15 5 19 7q-42 20 -96 20q-9 20 -9 42q0 36 29 55.5t76 19.5q96 0 169 -72q93 39 95 39q13 0 22.5 -29t9.5 -47q0 -35 -61 -59z"/>
<glyph glyph-name="ntilde" d="M449 720q25 0 46 15t36 30t25 15q20 0 20 -39q0 -53 -37 -94.5t-106 -41.5q-40 0 -70.5 16.5t-53.5 32.5t-45 16q-24 0 -42.5 -16t-32 -32.5t-23.5 -16.5q-20 0 -20 40q0 52 33.5 93.5t101.5 41.5q49 0 96 -30t72 -30zM382 88q0 28 10.5 132.5t10.5 138.5q0 67 -61 67 q-47 0 -73 -34t-41 -117.5t-27 -254.5q-1 -12 -5 -16t-17 -4h-36q-58 0 -80 23t-22 72q0 6 30 426q1 22 5 26q3 3 16 3h39q98 0 104 -84q31 52 70.5 73t100.5 21q86 0 125.5 -40.5t39.5 -140.5q0 -36 -13.5 -185.5t-13.5 -162.5q0 -21 -4.5 -26t-22.5 -5h-32 q-60 0 -81.5 21.5t-21.5 66.5z" unicode="ñ"/>
<glyph glyph-name="ograve" horiz-adv-x="598" unicode="ò" d="M339 615q-23 0 -78.5 65t-55.5 88q0 17 42 39t68 22q15 0 21 -15q11 -28 27 -66t24.5 -59.5t8.5 -25.5q0 -12 -22 -30t-35 -18zM312 427q-35 0 -59.5 -18.5t-35 -49t-14.5 -56t-4 -52.5q0 -128 81 -128q33 0 57 21.5t35.5 54.5t16.5 63t5 58q0 107 -82 107zM265 -10 q-236 0 -236 250q0 64 15 118.5t48.5 101.5t94 73.5t142.5 26.5q122 0 178.5 -59.5t56.5 -174.5q0 -43 -6.5 -84t-26.5 -88.5t-52 -82t-87 -58t-127 -23.5z"/>
<glyph glyph-name="oacute" horiz-adv-x="598" unicode="ó" d="M339 615q-14 0 -32.5 17.5t-18.5 30.5q0 2 15 24.5t44 64t43 62.5q10 15 23 15q25 0 68.5 -22t43.5 -38q0 -20 -81.5 -87t-104.5 -67zM312 427q-35 0 -59.5 -18.5t-35 -49t-14.5 -56t-4 -52.5q0 -128 81 -128q33 0 57 21.5t35.5 54.5t16.5 63t5 58q0 107 -82 107z M265 -10q-236 0 -236 250q0 64 15 118.5t48.5 101.5t94 73.5t142.5 26.5q122 0 178.5 -59.5t56.5 -174.5q0 -43 -6.5 -84t-26.5 -88.5t-52 -82t-87 -58t-127 -23.5z"/>
<glyph glyph-name="ocircumflex" horiz-adv-x="598" unicode="ô" d="M458 615q-30 0 -101 102q-104 -102 -135 -102q-12 0 -31 18t-19 25q0 10 132 156q13 15 66 15q44 0 53 -15q90 -149 90 -156q0 -6 -21.5 -24.5t-33.5 -18.5zM312 427q-35 0 -59.5 -18.5t-35 -49t-14.5 -56t-4 -52.5q0 -128 81 -128q33 0 57 21.5t35.5 54.5t16.5 63t5 58 q0 107 -82 107zM265 -10q-236 0 -236 250q0 64 15 118.5t48.5 101.5t94 73.5t142.5 26.5q122 0 178.5 -59.5t56.5 -174.5q0 -43 -6.5 -84t-26.5 -88.5t-52 -82t-87 -58t-127 -23.5z"/>
<glyph glyph-name="otilde" horiz-adv-x="598" unicode="õ" d="M436 720q25 0 46 15t36 30t25 15q20 0 20 -39q0 -53 -37 -94.5t-106 -41.5q-40 0 -70.5 16.5t-53.5 32.5t-45 16q-24 0 -42.5 -16t-32 -32.5t-23.5 -16.5q-20 0 -20 40q0 52 33.5 93.5t101.5 41.5q48 0 95.5 -30t72.5 -30zM312 427q-35 0 -59.5 -18.5t-35 -49t-14.5 -56 t-4 -52.5q0 -128 81 -128q33 0 57 21.5t35.5 54.5t16.5 63t5 58q0 107 -82 107zM265 -10q-236 0 -236 250q0 64 15 118.5t48.5 101.5t94 73.5t142.5 26.5q122 0 178.5 -59.5t56.5 -174.5q0 -43 -6.5 -84t-26.5 -88.5t-52 -82t-87 -58t-127 -23.5z"/>
<glyph glyph-name="odieresis" horiz-adv-x="598" unicode="ö" d="M378 677q0 36 24 57t65 21q69 0 69 -58q0 -34 -24 -56t-66 -22q-68 0 -68 58zM150 677q0 36 24 57t65 21q69 0 69 -58q0 -34 -24 -56t-66 -22q-68 0 -68 58zM312 427q-35 0 -59.5 -18.5t-35 -49t-14.5 -56t-4 -52.5q0 -128 81 -128q33 0 57 21.5t35.5 54.5t16.5 63t5 58 q0 107 -82 107zM265 -10q-236 0 -236 250q0 64 15 118.5t48.5 101.5t94 73.5t142.5 26.5q122 0 178.5 -59.5t56.5 -174.5q0 -43 -6.5 -84t-26.5 -88.5t-52 -82t-87 -58t-127 -23.5z"/>
<glyph glyph-name="divide" horiz-adv-x="483" unicode="÷" d="M229 178q77 0 77 -68q0 -37 -21.5 -67t-75.5 -30q-77 0 -77 72q0 40 23 66.5t74 26.5zM376 228h-342q-11 0 -11 11q0 7 2 41q2 32 16 51t56 19h342q16 0 16 -14l-3 -41q-3 -34 -18.5 -50.5t-57.5 -16.5zM283 565q77 0 77 -68q0 -37 -21.5 -67t-75.5 -30q-77 0 -77 72 q0 40 23 66.5t74 26.5z"/>
<glyph glyph-name="oslash" horiz-adv-x="598" unicode="ø" d="M312 432q-40 0 -67.5 -19t-39.5 -50.5t-16.5 -57.5t-4.5 -54q0 -20 1 -29q62 92 146 209q-6 1 -19 1zM407 343q-85 -124 -153 -222q12 -3 26 -3q37 0 64.5 22t40.5 56t18.5 65t5.5 59q0 9 -2 23zM265 -10q-54 0 -93 12l-30 -43q-19 -27 -66 -27q-36 0 -36 31q0 30 40 98 q-51 60 -51 179q0 64 15 118.5t48.5 101.5t94 73.5t142.5 26.5q51 0 87 -10l39 54q21 30 66 30q20 0 29.5 -10t9.5 -22q0 -23 -51 -104q55 -58 55 -172q0 -43 -6.5 -84t-26.5 -88.5t-52 -82t-87 -58t-127 -23.5z"/>
<glyph glyph-name="ugrave" horiz-adv-x="600" unicode="ù" d="M316 615q-23 0 -78.5 65t-55.5 88q0 17 42 39t68 22q15 0 21 -15q11 -28 27 -66t24.5 -59.5t8.5 -25.5q0 -12 -22 -30t-35 -18zM232 465q0 -29 -10.5 -138.5t-10.5 -128.5q0 -34 17.5 -54t48.5 -20q22 0 39.5 15.5t28.5 44t19 60.5t12.5 74.5t7 76t5 74.5t4.5 61t22 20 h36q58 0 80 -23t22 -72q0 -6 -30 -426q-2 -21 -4.5 -25t-16.5 -4h-39q-98 0 -104 82q-53 -92 -154 -92q-74 0 -117.5 45t-43.5 113q0 36 10.5 183.5t14.5 187.5q1 18 7.5 24.5t20.5 6.5h32q59 0 81 -21t22 -64z"/>
<glyph glyph-name="uacute" horiz-adv-x="600" unicode="ú" d="M316 615q-14 0 -32.5 17.5t-18.5 30.5q0 2 15 24.5t44 64t43 62.5q10 15 23 15q25 0 68.5 -22t43.5 -38q0 -20 -81.5 -87t-104.5 -67zM232 465q0 -29 -10.5 -138.5t-10.5 -128.5q0 -34 17.5 -54t48.5 -20q22 0 39.5 15.5t28.5 44t19 60.5t12.5 74.5t7 76t5 74.5t4.5 61 t22 20h36q58 0 80 -23t22 -72q0 -6 -30 -426q-2 -21 -4.5 -25t-16.5 -4h-39q-98 0 -104 82q-53 -92 -154 -92q-74 0 -117.5 45t-43.5 113q0 36 10.5 183.5t14.5 187.5q1 18 7.5 24.5t20.5 6.5h32q59 0 81 -21t22 -64z"/>
<glyph glyph-name="ucircumflex" horiz-adv-x="600" unicode="û" d="M429 615q-30 0 -101 102q-104 -102 -135 -102q-12 0 -31 18t-19 25q0 10 132 156q13 15 66 15q44 0 53 -15q90 -149 90 -156q0 -6 -21.5 -24.5t-33.5 -18.5zM232 465q0 -29 -10.5 -138.5t-10.5 -128.5q0 -34 17.5 -54t48.5 -20q22 0 39.5 15.5t28.5 44t19 60.5t12.5 74.5 t7 76t5 74.5t4.5 61t22 20h36q58 0 80 -23t22 -72q0 -6 -30 -426q-2 -21 -4.5 -25t-16.5 -4h-39q-98 0 -104 82q-53 -92 -154 -92q-74 0 -117.5 45t-43.5 113q0 36 10.5 183.5t14.5 187.5q1 18 7.5 24.5t20.5 6.5h32q59 0 81 -21t22 -64z"/>
<glyph glyph-name="udieresis" horiz-adv-x="600" unicode="ü" d="M356 664q0 36 24 57t65 21q69 0 69 -58q0 -34 -24 -56t-66 -22q-68 0 -68 58zM128 664q0 36 24 57t65 21q69 0 69 -58q0 -34 -24 -56t-66 -22q-68 0 -68 58zM232 465q0 -29 -10.5 -138.5t-10.5 -128.5q0 -34 17.5 -54t48.5 -20q22 0 39.5 15.5t28.5 44t19 60.5t12.5 74.5 t7 76t5 74.5t4.5 61t22 20h36q58 0 80 -23t22 -72q0 -6 -30 -426q-2 -21 -4.5 -25t-16.5 -4h-39q-98 0 -104 82q-53 -92 -154 -92q-74 0 -117.5 45t-43.5 113q0 36 10.5 183.5t14.5 187.5q1 18 7.5 24.5t20.5 6.5h32q59 0 81 -21t22 -64z"/>
<glyph glyph-name="yacute" horiz-adv-x="610" unicode="ý" d="M320 615q-14 0 -32.5 17.5t-18.5 30.5q0 2 15 24.5t44 64t43 62.5q10 15 23 15q25 0 68.5 -22t43.5 -38q0 -20 -81.5 -87t-104.5 -67zM232 458q0 -33 -9.5 -117t-9.5 -102q0 -36 18 -55.5t46 -19.5q46 0 74.5 48t35.5 131l16 187q1 20 22 20h36q102 0 102 -83 q0 -28 -30 -438q-5 -64 -29 -109.5t-62.5 -69.5t-81.5 -34.5t-95 -10.5q-100 0 -166.5 33.5t-66.5 82.5q0 36 29.5 55t72.5 19q8 0 15 -10t13.5 -22.5t30.5 -22.5t63 -10q116 0 116 188q-49 -88 -158 -88q-166 0 -166 188q0 30 21 301q2 31 28 31h32q60 0 81.5 -22t21.5 -70 z"/>
<glyph glyph-name="thorn" horiz-adv-x="611" unicode="þ" d="M395 297q0 130 -80 130q-31 0 -53 -17.5t-31.5 -46t-13 -53t-3.5 -51.5q0 -136 80 -136q45 0 73 44t28 130zM28 -99q0 46 30 408q27 335 27 402q0 21 3 25t18 4h39q104 0 104 -87q0 -30 -12 -181q26 46 60 67t86 21q92 0 142 -61t50 -184q0 -147 -67 -236t-170 -89 q-92 0 -129 88q-14 -146 -21 -243q-1 -12 -5 -16t-17 -4h-36q-55 0 -78.5 21t-23.5 65z"/>
<glyph glyph-name="ydieresis" horiz-adv-x="610" unicode="ÿ" d="M364 677q0 36 24 57t65 21q69 0 69 -58q0 -34 -24 -56t-66 -22q-68 0 -68 58zM136 677q0 36 24 57t65 21q69 0 69 -58q0 -34 -24 -56t-66 -22q-68 0 -68 58zM232 458q0 -33 -9.5 -117t-9.5 -102q0 -36 18 -55.5t46 -19.5q46 0 74.5 48t35.5 131l16 187q1 20 22 20h36 q102 0 102 -83q0 -28 -30 -438q-5 -64 -29 -109.5t-62.5 -69.5t-81.5 -34.5t-95 -10.5q-100 0 -166.5 33.5t-66.5 82.5q0 36 29.5 55t72.5 19q8 0 15 -10t13.5 -22.5t30.5 -22.5t63 -10q116 0 116 188q-49 -88 -158 -88q-166 0 -166 188q0 30 21 301q2 31 28 31h32 q60 0 81.5 -22t21.5 -70z"/>
<glyph glyph-name="Amacron" d="M444 800h-272q-11 0 -11 11q0 18 0.5 27.5t4 25t11 23.5t22 14t35.5 6h272q16 0 16 -14q0 -48 -15 -70.5t-63 -22.5zM319 563l-73 -264h115zM271 710h95q45 0 65.5 -28.5t33.5 -82.5q134 -540 134 -575q0 -24 -27 -24h-51q-42 0 -68 9.5t-40 33t-19 46t-10 65.5h-174 l-33 -138q-5 -16 -23 -16h-53q-37 0 -66 16.5t-29 49.5q0 61 93.5 308t132.5 317q8 14 14 16.5t25 2.5z" unicode="Ā"/>
<glyph glyph-name="amacron" horiz-adv-x="563" unicode="ā" d="M409 618h-272q-11 0 -11 11q0 23 1.5 35.5t8 29t22 24t41.5 7.5h272q16 0 16 -14q0 -48 -15 -70.5t-63 -22.5zM322 237q-59 0 -99 -18t-40 -55q0 -41 46 -41q35 0 62 30t31 84zM11 123q0 90 82 141t238 55q2 28 2 37q0 35 -13.5 52.5t-48.5 17.5q-27 0 -42.5 -11.5 t-21.5 -25.5t-13 -44q-4 -14 -31 -14q-102 0 -102 77q0 66 59.5 109t169.5 43q211 0 211 -176q0 -15 -8.5 -99t-8.5 -99q0 -29 15 -41t29.5 -15t14.5 -10q0 -52 -28.5 -91t-91.5 -39q-88 0 -104 87q-61 -87 -163 -87q-65 0 -105 32t-40 101z"/>
<glyph glyph-name="Abreve" d="M328 780q-74 0 -111.5 30t-37.5 64q0 24 19 37.5t47 13.5q21 0 32 -9t14 -20.5t14 -20.5t32 -9q30 0 60 29.5t68 29.5q43 0 43 -31q0 -40 -49 -77t-131 -37zM319 563l-73 -264h115zM271 710h95q45 0 65.5 -28.5t33.5 -82.5q134 -540 134 -575q0 -24 -27 -24h-51 q-42 0 -68 9.5t-40 33t-19 46t-10 65.5h-174l-33 -138q-5 -16 -23 -16h-53q-37 0 -66 16.5t-29 49.5q0 61 93.5 308t132.5 317q8 14 14 16.5t25 2.5z" unicode="Ă"/>
<glyph glyph-name="abreve" horiz-adv-x="563" unicode="ă" d="M299 605q-74 0 -111.5 30t-37.5 64q0 24 19 37.5t47 13.5q21 0 32 -9t14 -20.5t14 -20.5t32 -9q30 0 60 29.5t68 29.5q43 0 43 -31q0 -40 -49 -77t-131 -37zM322 237q-59 0 -99 -18t-40 -55q0 -41 46 -41q35 0 62 30t31 84zM11 123q0 90 82 141t238 55q2 28 2 37 q0 35 -13.5 52.5t-48.5 17.5q-27 0 -42.5 -11.5t-21.5 -25.5t-13 -44q-4 -14 -31 -14q-102 0 -102 77q0 66 59.5 109t169.5 43q211 0 211 -176q0 -15 -8.5 -99t-8.5 -99q0 -29 15 -41t29.5 -15t14.5 -10q0 -52 -28.5 -91t-91.5 -39q-88 0 -104 87q-61 -87 -163 -87 q-65 0 -105 32t-40 101z"/>
<glyph glyph-name="Aogonek" d="M319 563l-73 -264h115zM271 710h95q45 0 65.5 -28.5t33.5 -82.5q134 -540 134 -575q0 -24 -27 -24h-38q-37 -40 -37 -73q0 -20 13 -34t26 -22.5t13 -14.5q0 -13 -30 -32t-69 -19t-59 19.5t-20 50.5q0 66 94 131q-43 12 -58 45t-23 103h-174l-33 -138q-5 -16 -23 -16h-53 q-37 0 -66 16.5t-29 49.5q0 61 93.5 308t132.5 317q8 14 14 16.5t25 2.5z" unicode="Ą"/>
<glyph glyph-name="aogonek" horiz-adv-x="563" unicode="ą" d="M322 237q-59 0 -99 -18t-40 -55q0 -41 46 -41q35 0 62 30t31 84zM11 123q0 90 82 141t238 55q2 28 2 37q0 35 -13.5 52.5t-48.5 17.5q-27 0 -42.5 -11.5t-21.5 -25.5t-13 -44q-4 -14 -31 -14q-102 0 -102 77q0 66 59.5 109t169.5 43q211 0 211 -176q0 -15 -8.5 -99 t-8.5 -99q0 -29 15 -41t29.5 -15t14.5 -10q0 -66 -38 -101q-56 -53 -56 -92q0 -20 13 -34t26 -22.5t13 -14.5q0 -13 -30 -32t-69 -19t-59 19.5t-20 50.5q0 60 74 117q-65 11 -78 85q-61 -87 -163 -87q-65 0 -105 32t-40 101z"/>
<glyph glyph-name="Cacute" horiz-adv-x="617" unicode="Ć" d="M395 780q-19 0 -32.5 22t-13.5 33q0 15 68 72t92 57q19 0 59 -34.5t40 -49.5q0 -22 -90.5 -61t-122.5 -39zM351 146q37 0 69 12t49.5 27t35.5 27t31 12q20 0 20 -30q0 -27 -15 -89q-10 -41 -68 -78t-151 -37q-55 0 -102.5 15.5t-89.5 49.5t-66.5 98.5t-24.5 152.5 q0 47 6.5 94.5t28 108t56.5 105t98.5 75.5t147.5 31q113 0 171.5 -50.5t58.5 -129.5q0 -123 -144 -123q-21 0 -27 3.5t-6 14.5q-1 30 -1.5 42t-2.5 32t-5.5 27t-10 16.5t-17 12t-25.5 2.5q-44 0 -74.5 -27t-43.5 -71t-18 -80t-5 -73q0 -91 30 -130.5t95 -39.5z"/>
<glyph glyph-name="cacute" horiz-adv-x="508" unicode="ć" d="M316 615q-14 0 -32.5 17.5t-18.5 30.5q0 2 15 24.5t44 64t43 62.5q10 15 23 15q25 0 68.5 -22t43.5 -38q0 -20 -81.5 -87t-104.5 -67zM293 123q34 0 62.5 13t46.5 26t26 13q23 0 23 -30q0 -14 -11.5 -46t-20.5 -43t-26.5 -24t-55.5 -27.5t-80 -14.5q-41 0 -78.5 12 t-72.5 39t-56 78t-21 121q0 37 5 73.5t23 83t46.5 81t80.5 58.5t120 24q93 0 141 -40t48 -104q0 -105 -130 -105q-15 0 -20.5 2.5t-5.5 11.5q0 31 -1 44.5t-5.5 30t-14 22t-25.5 5.5q-29 0 -49 -19t-28.5 -50.5t-11.5 -56.5t-3 -51q0 -70 22 -98.5t72 -28.5z"/>
<glyph glyph-name="Ccircumflex" horiz-adv-x="617" unicode="Ĉ" d="M514 780q-33 0 -111 82q-111 -82 -145 -82q-12 0 -31 18t-19 25q0 6 132 126q17 15 76 15q44 0 53 -15q100 -119 100 -126q0 -6 -21.5 -24.5t-33.5 -18.5zM351 146q37 0 69 12t49.5 27t35.5 27t31 12q20 0 20 -30q0 -27 -15 -89q-10 -41 -68 -78t-151 -37 q-55 0 -102.5 15.5t-89.5 49.5t-66.5 98.5t-24.5 152.5q0 47 6.5 94.5t28 108t56.5 105t98.5 75.5t147.5 31q113 0 171.5 -50.5t58.5 -129.5q0 -123 -144 -123q-21 0 -27 3.5t-6 14.5q-1 30 -1.5 42t-2.5 32t-5.5 27t-10 16.5t-17 12t-25.5 2.5q-44 0 -74.5 -27t-43.5 -71 t-18 -80t-5 -73q0 -91 30 -130.5t95 -39.5z"/>
<glyph glyph-name="ccircumflex" horiz-adv-x="508" unicode="ĉ" d="M434 615q-30 0 -101 102q-104 -102 -135 -102q-12 0 -31 18t-19 25q0 10 132 156q13 15 66 15q44 0 53 -15q90 -149 90 -156q0 -6 -21.5 -24.5t-33.5 -18.5zM293 123q34 0 62.5 13t46.5 26t26 13q23 0 23 -30q0 -14 -11.5 -46t-20.5 -43t-26.5 -24t-55.5 -27.5t-80 -14.5 q-41 0 -78.5 12t-72.5 39t-56 78t-21 121q0 37 5 73.5t23 83t46.5 81t80.5 58.5t120 24q93 0 141 -40t48 -104q0 -105 -130 -105q-15 0 -20.5 2.5t-5.5 11.5q0 31 -1 44.5t-5.5 30t-14 22t-25.5 5.5q-29 0 -49 -19t-28.5 -50.5t-11.5 -56.5t-3 -51q0 -70 22 -98.5t72 -28.5z "/>
<glyph glyph-name="Cdotaccent" horiz-adv-x="617" unicode="Ċ" d="M310 844q0 40 29 63t78 23q82 0 82 -64q0 -38 -28.5 -62t-79.5 -24q-81 0 -81 64zM351 146q37 0 69 12t49.5 27t35.5 27t31 12q20 0 20 -30q0 -27 -15 -89q-10 -41 -68 -78t-151 -37q-55 0 -102.5 15.5t-89.5 49.5t-66.5 98.5t-24.5 152.5q0 47 6.5 94.5t28 108t56.5 105 t98.5 75.5t147.5 31q113 0 171.5 -50.5t58.5 -129.5q0 -123 -144 -123q-21 0 -27 3.5t-6 14.5q-1 30 -1.5 42t-2.5 32t-5.5 27t-10 16.5t-17 12t-25.5 2.5q-44 0 -74.5 -27t-43.5 -71t-18 -80t-5 -73q0 -91 30 -130.5t95 -39.5z"/>
<glyph glyph-name="cdotaccent" horiz-adv-x="508" unicode="ċ" d="M231 669q0 40 29 63t78 23q82 0 82 -64q0 -38 -28.5 -62t-79.5 -24q-81 0 -81 64zM293 123q34 0 62.5 13t46.5 26t26 13q23 0 23 -30q0 -14 -11.5 -46t-20.5 -43t-26.5 -24t-55.5 -27.5t-80 -14.5q-41 0 -78.5 12t-72.5 39t-56 78t-21 121q0 37 5 73.5t23 83t46.5 81 t80.5 58.5t120 24q93 0 141 -40t48 -104q0 -105 -130 -105q-15 0 -20.5 2.5t-5.5 11.5q0 31 -1 44.5t-5.5 30t-14 22t-25.5 5.5q-29 0 -49 -19t-28.5 -50.5t-11.5 -56.5t-3 -51q0 -70 22 -98.5t72 -28.5z"/>
<glyph glyph-name="Ccaron" horiz-adv-x="617" unicode="Č" d="M293 964q33 0 111 -82q111 82 145 82q12 0 31 -18t19 -25q0 -6 -132 -126q-17 -15 -76 -15q-44 0 -53 15q-100 119 -100 126q0 6 21.5 24.5t33.5 18.5zM351 146q37 0 69 12t49.5 27t35.5 27t31 12q20 0 20 -30q0 -27 -15 -89q-10 -41 -68 -78t-151 -37q-55 0 -102.5 15.5 t-89.5 49.5t-66.5 98.5t-24.5 152.5q0 47 6.5 94.5t28 108t56.5 105t98.5 75.5t147.5 31q113 0 171.5 -50.5t58.5 -129.5q0 -123 -144 -123q-21 0 -27 3.5t-6 14.5q-1 30 -1.5 42t-2.5 32t-5.5 27t-10 16.5t-17 12t-25.5 2.5q-44 0 -74.5 -27t-43.5 -71t-18 -80t-5 -73 q0 -91 30 -130.5t95 -39.5z"/>
<glyph glyph-name="ccaron" horiz-adv-x="508" unicode="č" d="M220 819q31 0 101 -92q104 92 135 92q12 0 31 -18t19 -25q0 -9 -132 -146q-13 -15 -66 -15q-44 0 -53 15q-90 138 -90 146q0 6 21.5 24.5t33.5 18.5zM293 123q34 0 62.5 13t46.5 26t26 13q23 0 23 -30q0 -14 -11.5 -46t-20.5 -43t-26.5 -24t-55.5 -27.5t-80 -14.5 q-41 0 -78.5 12t-72.5 39t-56 78t-21 121q0 37 5 73.5t23 83t46.5 81t80.5 58.5t120 24q93 0 141 -40t48 -104q0 -105 -130 -105q-15 0 -20.5 2.5t-5.5 11.5q0 31 -1 44.5t-5.5 30t-14 22t-25.5 5.5q-29 0 -49 -19t-28.5 -50.5t-11.5 -56.5t-3 -51q0 -70 22 -98.5t72 -28.5z "/>
<glyph glyph-name="Dcaron" horiz-adv-x="666" unicode="Ď" d="M243 964q33 0 111 -82q111 82 145 82q12 0 31 -18t19 -25q0 -6 -132 -126q-17 -15 -76 -15q-44 0 -53 15q-100 119 -100 126q0 6 21.5 24.5t33.5 18.5zM278 148q171 0 171 249q0 89 -26 128.5t-96 39.5q-5 0 -69 -4q-6 -135 -27 -410q20 -3 47 -3zM92 695q1 15 17 15 q51 0 127.5 4.5t93.5 4.5q168 0 234.5 -69t66.5 -231q0 -69 -10 -128.5t-35.5 -116t-65 -96.5t-103.5 -64t-146 -24q-47 0 -74.5 1t-59 6.5t-48 16t-27.5 29t-11 46.5q0 51 19 272q14 172 22 334z"/>
<glyph glyph-name="dcaron" horiz-adv-x="684" unicode="ď" d="M311 427q-50 0 -75 -43.5t-25 -120.5q0 -140 80 -140q45 0 73 44t28 130q0 130 -81 130zM224 -10q-85 0 -139.5 61.5t-54.5 183.5q0 39 5.5 78.5t22 85.5t43 80.5t72.5 57.5t105 23q104 0 119 -78q3 59 8 129.5t7 99.5q1 22 5 26q3 3 16 3h39q104 0 104 -86 q0 -1 -10.5 -146t-22.5 -303t-15 -185q-2 -13 -5 -16.5t-17 -3.5h-36q-48 0 -74 16.5t-26 59.5q-40 -86 -146 -86zM661 621q-52 0 -52 53q0 37 25 56.5t60 19.5q65 0 65 -79q0 -59 -32.5 -104.5t-76.5 -45.5q-38 0 -38 42q0 1 24.5 20.5t24.5 37.5z"/>
<glyph glyph-name="Dcroat" horiz-adv-x="671" unicode="Đ" d="M281 310h-33q-2 -23 -6 -78t-6 -81q20 -3 47 -3q171 0 171 249q0 89 -26 128.5t-96 39.5q-5 0 -69 -4l-8 -144h88q16 0 16 -14q0 -48 -15 -70.5t-63 -22.5zM97 695q1 15 17 15q51 0 127.5 4.5t93.5 4.5q168 0 234.5 -69t66.5 -231q0 -69 -10 -128.5t-35.5 -116t-65 -96.5 t-103.5 -64t-146 -24q-47 0 -74.5 1t-59 6.5t-48 16t-27.5 29t-11 46.5q0 36 14 221h-61q-11 0 -11 11q0 23 1.5 35.5t8.5 29t24.5 24t46.5 7.5q10 130 18 278z"/>
<glyph glyph-name="dcroat" horiz-adv-x="608" unicode="đ" d="M311 427q-50 0 -75 -43.5t-25 -120.5q0 -140 80 -140q45 0 73 44t28 130q0 130 -81 130zM224 -10q-85 0 -139.5 61.5t-54.5 183.5q0 39 5.5 78.5t22 85.5t43 80.5t72.5 57.5t105 23q104 0 119 -78l2.5 47.5t1.5 35.5h-54q-11 0 -11 11q0 18 0.5 27.5t4 25t11 23.5t22 14 t35.5 6l3 39q1 22 5 26q3 3 16 3h39q92 0 103 -68h56q16 0 16 -14q0 -48 -15 -70.5t-63 -22.5q-35 -474 -41 -545q-2 -13 -5 -16.5t-17 -3.5h-36q-48 0 -74 16.5t-26 59.5q-40 -86 -146 -86z"/>
<glyph glyph-name="Emacron" horiz-adv-x="501" unicode="Ē" d="M410 800h-272q-11 0 -11 11q0 18 0.5 27.5t4 25t11 23.5t22 14t35.5 6h272q16 0 16 -14q0 -48 -15 -70.5t-63 -22.5zM385 0h-230q-104 0 -104 85q0 42 21 310t21 300q0 15 16 15h352q16 0 16 -14l-4 -59q-3 -34 -18.5 -50.5t-57.5 -16.5h-138l-10 -141h142q16 0 16 -14 l-4 -59q-3 -34 -18.5 -50.5t-57.5 -16.5h-87l-11 -149h220q16 0 16 -14l-4 -59q-3 -34 -18.5 -50.5t-57.5 -16.5z"/>
<glyph glyph-name="emacron" horiz-adv-x="532" unicode="ē" d="M426 618h-272q-11 0 -11 11q0 23 1.5 35.5t8 29t22 24t41.5 7.5h272q16 0 16 -14q0 -48 -15 -70.5t-63 -22.5zM291 427q-72 0 -88 -130q63 1 101 21.5t38 56.5q0 22 -13.5 37t-37.5 15zM272 -10q-47 0 -87.5 11.5t-77 37t-58 73t-21.5 112.5q0 36 5.5 74t25 87t50 86 t87 63t129.5 26q98 0 143 -41.5t45 -108.5q0 -52 -27 -90t-63.5 -57t-85.5 -30.5t-78.5 -13.5t-58.5 -2q0 -43 23.5 -72.5t71.5 -29.5q24 0 40.5 8.5t23.5 19t15.5 19t17.5 8.5q11 0 26 -4.5t32.5 -22t17.5 -44.5q0 -37 -31.5 -62.5t-74 -36t-90.5 -10.5z"/>
<glyph glyph-name="Ebreve" horiz-adv-x="501" unicode="Ĕ" d="M294 780q-74 0 -111.5 30t-37.5 64q0 24 19 37.5t47 13.5q21 0 32 -9t14 -20.5t14 -20.5t32 -9q30 0 60 29.5t68 29.5q43 0 43 -31q0 -40 -49 -77t-131 -37zM385 0h-230q-104 0 -104 85q0 42 21 310t21 300q0 15 16 15h352q16 0 16 -14l-4 -59q-3 -34 -18.5 -50.5 t-57.5 -16.5h-138l-10 -141h142q16 0 16 -14l-4 -59q-3 -34 -18.5 -50.5t-57.5 -16.5h-87l-11 -149h220q16 0 16 -14l-4 -59q-3 -34 -18.5 -50.5t-57.5 -16.5z"/>
<glyph glyph-name="ebreve" horiz-adv-x="532" unicode="ĕ" d="M335 605q-74 0 -111.5 30t-37.5 64q0 24 19 37.5t47 13.5q21 0 32 -9t14 -20.5t14 -20.5t32 -9q30 0 60 29.5t68 29.5q43 0 43 -31q0 -40 -49 -77t-131 -37zM291 427q-72 0 -88 -130q63 1 101 21.5t38 56.5q0 22 -13.5 37t-37.5 15zM272 -10q-47 0 -87.5 11.5t-77 37 t-58 73t-21.5 112.5q0 36 5.5 74t25 87t50 86t87 63t129.5 26q98 0 143 -41.5t45 -108.5q0 -52 -27 -90t-63.5 -57t-85.5 -30.5t-78.5 -13.5t-58.5 -2q0 -43 23.5 -72.5t71.5 -29.5q24 0 40.5 8.5t23.5 19t15.5 19t17.5 8.5q11 0 26 -4.5t32.5 -22t17.5 -44.5 q0 -37 -31.5 -62.5t-74 -36t-90.5 -10.5z"/>
<glyph glyph-name="Edotaccent" horiz-adv-x="501" unicode="Ė" d="M213 844q0 40 29 63t78 23q82 0 82 -64q0 -38 -28.5 -62t-79.5 -24q-81 0 -81 64zM385 0h-230q-104 0 -104 85q0 42 21 310t21 300q0 15 16 15h352q16 0 16 -14l-4 -59q-3 -34 -18.5 -50.5t-57.5 -16.5h-138l-10 -141h142q16 0 16 -14l-4 -59q-3 -34 -18.5 -50.5 t-57.5 -16.5h-87l-11 -149h220q16 0 16 -14l-4 -59q-3 -34 -18.5 -50.5t-57.5 -16.5z"/>
<glyph glyph-name="edotaccent" horiz-adv-x="532" unicode="ė" d="M252 669q0 40 29 63t78 23q82 0 82 -64q0 -38 -28.5 -62t-79.5 -24q-81 0 -81 64zM291 427q-72 0 -88 -130q63 1 101 21.5t38 56.5q0 22 -13.5 37t-37.5 15zM272 -10q-47 0 -87.5 11.5t-77 37t-58 73t-21.5 112.5q0 36 5.5 74t25 87t50 86t87 63t129.5 26q98 0 143 -41.5 t45 -108.5q0 -52 -27 -90t-63.5 -57t-85.5 -30.5t-78.5 -13.5t-58.5 -2q0 -43 23.5 -72.5t71.5 -29.5q24 0 40.5 8.5t23.5 19t15.5 19t17.5 8.5q11 0 26 -4.5t32.5 -22t17.5 -44.5q0 -37 -31.5 -62.5t-74 -36t-90.5 -10.5z"/>
<glyph glyph-name="Eogonek" horiz-adv-x="501" unicode="Ę" d="M385 0h-94q-37 -40 -37 -73q0 -20 13 -34t26 -22.5t13 -14.5q0 -13 -30 -32t-69 -19t-59 19.5t-20 50.5q0 63 86 125h-59q-104 0 -104 85q0 42 21 310t21 300q0 15 16 15h352q16 0 16 -14l-4 -59q-3 -34 -18.5 -50.5t-57.5 -16.5h-138l-10 -141h142q16 0 16 -14l-4 -59 q-3 -34 -18.5 -50.5t-57.5 -16.5h-87l-11 -149h220q16 0 16 -14l-4 -59q-3 -34 -18.5 -50.5t-57.5 -16.5z"/>
<glyph glyph-name="eogonek" horiz-adv-x="533" unicode="ę" d="M291 427q-72 0 -88 -130q63 1 101 21.5t38 56.5q0 22 -13.5 37t-37.5 15zM468 99q0 -49 -48 -75.5t-118 -32.5q-29 -35 -29 -64q0 -20 13 -34t26 -22.5t13 -14.5q0 -13 -30 -32t-69 -19t-59 19.5t-20 50.5q0 60 76 118q-85 11 -140 66.5t-55 164.5q0 36 5.5 74t25 87 t50 86t87 63t129.5 26q98 0 143 -41.5t45 -108.5q0 -52 -27 -90t-63.5 -57t-85.5 -30.5t-78.5 -13.5t-58.5 -2q0 -43 23.5 -72.5t71.5 -29.5q24 0 40.5 8.5t23.5 19t15.5 19t17.5 8.5q11 0 26 -4.5t32.5 -22t17.5 -44.5z"/>
<glyph glyph-name="Ecaron" horiz-adv-x="501" unicode="Ě" d="M196 964q33 0 111 -82q111 82 145 82q12 0 31 -18t19 -25q0 -6 -132 -126q-17 -15 -76 -15q-44 0 -53 15q-100 119 -100 126q0 6 21.5 24.5t33.5 18.5zM385 0h-230q-104 0 -104 85q0 42 21 310t21 300q0 15 16 15h352q16 0 16 -14l-4 -59q-3 -34 -18.5 -50.5t-57.5 -16.5 h-138l-10 -141h142q16 0 16 -14l-4 -59q-3 -34 -18.5 -50.5t-57.5 -16.5h-87l-11 -149h220q16 0 16 -14l-4 -59q-3 -34 -18.5 -50.5t-57.5 -16.5z"/>
<glyph glyph-name="ecaron" horiz-adv-x="532" unicode="ě" d="M237 819q31 0 101 -92q104 92 135 92q12 0 31 -18t19 -25q0 -9 -132 -146q-13 -15 -66 -15q-44 0 -53 15q-90 138 -90 146q0 6 21.5 24.5t33.5 18.5zM291 427q-72 0 -88 -130q63 1 101 21.5t38 56.5q0 22 -13.5 37t-37.5 15zM272 -10q-47 0 -87.5 11.5t-77 37t-58 73 t-21.5 112.5q0 36 5.5 74t25 87t50 86t87 63t129.5 26q98 0 143 -41.5t45 -108.5q0 -52 -27 -90t-63.5 -57t-85.5 -30.5t-78.5 -13.5t-58.5 -2q0 -43 23.5 -72.5t71.5 -29.5q24 0 40.5 8.5t23.5 19t15.5 19t17.5 8.5q11 0 26 -4.5t32.5 -22t17.5 -44.5q0 -37 -31.5 -62.5 t-74 -36t-90.5 -10.5z"/>
<glyph glyph-name="Gcircumflex" horiz-adv-x="640" unicode="Ĝ" d="M523 780q-33 0 -111 82q-111 -82 -145 -82q-12 0 -31 18t-19 25q0 6 132 126q17 15 76 15q44 0 53 -15q100 -119 100 -126q0 -6 -21.5 -24.5t-33.5 -18.5zM550 0h-55q-95 0 -99 75q-12 -37 -49 -61t-100 -24q-88 0 -147 73.5t-59 238.5q0 50 6 97t27.5 108.5t57 106 t101.5 75.5t155 31q101 0 160.5 -42t59.5 -114q0 -57 -38 -87t-107 -30q-21 0 -26 3.5t-6 14.5q-1 7 -2 28t-2.5 29.5t-7 21.5t-17 18t-29.5 5q-46 0 -77.5 -27t-44.5 -71t-18 -79.5t-5 -72.5q0 -92 22.5 -131.5t65.5 -39.5q87 0 95 74l6 56q3 24 5 35.5t8.5 21t18.5 9.5h55 q48 0 63.5 -22.5t15.5 -82.5q0 -39 -6 -119.5t-10 -102.5q-2 -9 -5 -12t-12 -3z"/>
<glyph glyph-name="gcircumflex" horiz-adv-x="607" unicode="ĝ" d="M463 615q-30 0 -101 102q-104 -102 -135 -102q-12 0 -31 18t-19 25q0 10 132 156q13 15 66 15q44 0 53 -15q90 -149 90 -156q0 -6 -21.5 -24.5t-33.5 -18.5zM284 163q33 0 56 16t32.5 42.5t13 48.5t3.5 46q0 59 -18 85t-56 26q-34 0 -57.5 -19t-33 -49.5t-12.5 -52.5 t-3 -44q0 -51 17.5 -75t57.5 -24zM368 118q-49 -88 -151 -88q-86 0 -135 56t-49 170q0 53 11 102t35.5 97t73.5 76.5t117 28.5q27 0 51 -13t37.5 -28t24.5 -28t15 -13l1 14q1 13 2 29t1 19q1 10 13 10h46q53 0 76 -22.5t23 -80.5q0 -51 -12.5 -214t-31.5 -250 q-38 -178 -270 -178q-99 0 -155 35t-56 81q0 35 27 54.5t60 19.5q15 0 25.5 -10t17.5 -22.5t28.5 -22.5t55.5 -10q64 0 91.5 47t27.5 141z"/>
<glyph glyph-name="Gbreve" horiz-adv-x="640" unicode="Ğ" d="M400 780q-74 0 -111.5 30t-37.5 64q0 24 19 37.5t47 13.5q21 0 32 -9t14 -20.5t14 -20.5t32 -9q30 0 60 29.5t68 29.5q43 0 43 -31q0 -40 -49 -77t-131 -37zM550 0h-55q-95 0 -99 75q-12 -37 -49 -61t-100 -24q-88 0 -147 73.5t-59 238.5q0 50 6 97t27.5 108.5t57 106 t101.5 75.5t155 31q101 0 160.5 -42t59.5 -114q0 -57 -38 -87t-107 -30q-21 0 -26 3.5t-6 14.5q-1 7 -2 28t-2.5 29.5t-7 21.5t-17 18t-29.5 5q-46 0 -77.5 -27t-44.5 -71t-18 -79.5t-5 -72.5q0 -92 22.5 -131.5t65.5 -39.5q87 0 95 74l6 56q3 24 5 35.5t8.5 21t18.5 9.5h55 q48 0 63.5 -22.5t15.5 -82.5q0 -39 -6 -119.5t-10 -102.5q-2 -9 -5 -12t-12 -3z"/>
<glyph glyph-name="gbreve" horiz-adv-x="607" unicode="ğ" d="M329 605q-74 0 -111.5 30t-37.5 64q0 24 19 37.5t47 13.5q21 0 32 -9t14 -20.5t14 -20.5t32 -9q30 0 60 29.5t68 29.5q43 0 43 -31q0 -40 -49 -77t-131 -37zM284 163q33 0 56 16t32.5 42.5t13 48.5t3.5 46q0 59 -18 85t-56 26q-34 0 -57.5 -19t-33 -49.5t-12.5 -52.5 t-3 -44q0 -51 17.5 -75t57.5 -24zM368 118q-49 -88 -151 -88q-86 0 -135 56t-49 170q0 53 11 102t35.5 97t73.5 76.5t117 28.5q27 0 51 -13t37.5 -28t24.5 -28t15 -13l1 14q1 13 2 29t1 19q1 10 13 10h46q53 0 76 -22.5t23 -80.5q0 -51 -12.5 -214t-31.5 -250 q-38 -178 -270 -178q-99 0 -155 35t-56 81q0 35 27 54.5t60 19.5q15 0 25.5 -10t17.5 -22.5t28.5 -22.5t55.5 -10q64 0 91.5 47t27.5 141z"/>
<glyph glyph-name="Gdotaccent" horiz-adv-x="640" unicode="Ġ" d="M319 844q0 40 29 63t78 23q82 0 82 -64q0 -38 -28.5 -62t-79.5 -24q-81 0 -81 64zM550 0h-55q-95 0 -99 75q-12 -37 -49 -61t-100 -24q-88 0 -147 73.5t-59 238.5q0 50 6 97t27.5 108.5t57 106t101.5 75.5t155 31q101 0 160.5 -42t59.5 -114q0 -57 -38 -87t-107 -30 q-21 0 -26 3.5t-6 14.5q-1 7 -2 28t-2.5 29.5t-7 21.5t-17 18t-29.5 5q-46 0 -77.5 -27t-44.5 -71t-18 -79.5t-5 -72.5q0 -92 22.5 -131.5t65.5 -39.5q87 0 95 74l6 56q3 24 5 35.5t8.5 21t18.5 9.5h55q48 0 63.5 -22.5t15.5 -82.5q0 -39 -6 -119.5t-10 -102.5q-2 -9 -5 -12 t-12 -3z"/>
<glyph glyph-name="gdotaccent" horiz-adv-x="607" unicode="ġ" d="M264 669q0 40 29 63t78 23q82 0 82 -64q0 -38 -28.5 -62t-79.5 -24q-81 0 -81 64zM284 163q33 0 56 16t32.5 42.5t13 48.5t3.5 46q0 59 -18 85t-56 26q-34 0 -57.5 -19t-33 -49.5t-12.5 -52.5t-3 -44q0 -51 17.5 -75t57.5 -24zM368 118q-49 -88 -151 -88q-86 0 -135 56 t-49 170q0 53 11 102t35.5 97t73.5 76.5t117 28.5q27 0 51 -13t37.5 -28t24.5 -28t15 -13l1 14q1 13 2 29t1 19q1 10 13 10h46q53 0 76 -22.5t23 -80.5q0 -51 -12.5 -214t-31.5 -250q-38 -178 -270 -178q-99 0 -155 35t-56 81q0 35 27 54.5t60 19.5q15 0 25.5 -10 t17.5 -22.5t28.5 -22.5t55.5 -10q64 0 91.5 47t27.5 141z"/>
<glyph glyph-name="Gcommaaccent" horiz-adv-x="640" unicode="Ģ" d="M258 -131q-40 0 -40 39q0 52 59 52q53 0 53 -56q0 -42 -21 -73t-53 -31q-30 0 -30 32l16 14q16 13 16 23zM550 0h-55q-95 0 -99 75q-12 -37 -49 -61t-100 -24q-88 0 -147 73.5t-59 238.5q0 50 6 97t27.5 108.5t57 106t101.5 75.5t155 31q101 0 160.5 -42t59.5 -114 q0 -57 -38 -87t-107 -30q-21 0 -26 3.5t-6 14.5q-1 7 -2 28t-2.5 29.5t-7 21.5t-17 18t-29.5 5q-46 0 -77.5 -27t-44.5 -71t-18 -79.5t-5 -72.5q0 -92 22.5 -131.5t65.5 -39.5q87 0 95 74l6 56q3 24 5 35.5t8.5 21t18.5 9.5h55q48 0 63.5 -22.5t15.5 -82.5q0 -39 -6 -119.5 t-10 -102.5q-2 -9 -5 -12t-12 -3z"/>
<glyph glyph-name="gcommaaccent" horiz-adv-x="607" unicode="ģ" d="M284 163q33 0 56 16t32.5 42.5t13 48.5t3.5 46q0 59 -18 85t-56 26q-34 0 -57.5 -19t-33 -49.5t-12.5 -52.5t-3 -44q0 -51 17.5 -75t57.5 -24zM368 118q-49 -88 -151 -88q-86 0 -135 56t-49 170q0 53 11 102t35.5 97t73.5 76.5t117 28.5q27 0 51 -13t37.5 -28t24.5 -28 t15 -13l1 14q1 13 2 29t1 19q1 10 13 10h46q53 0 76 -22.5t23 -80.5q0 -51 -12.5 -214t-31.5 -250q-38 -178 -270 -178q-99 0 -155 35t-56 81q0 35 27 54.5t60 19.5q15 0 25.5 -10t17.5 -22.5t28.5 -22.5t55.5 -10q64 0 91.5 47t27.5 141zM340 696q40 0 40 -39 q0 -52 -59 -52q-53 0 -53 56q0 42 21 73t53 31q30 0 30 -32l-16 -13q-16 -14 -16 -24z"/>
<glyph glyph-name="Hcircumflex" horiz-adv-x="674" unicode="Ĥ" d="M489 780q-33 0 -111 82q-111 -82 -145 -82q-12 0 -31 18t-19 25q0 6 132 126q17 15 76 15q44 0 53 -15q100 -119 100 -126q0 -6 -21.5 -24.5t-33.5 -18.5zM570 0h-55q-104 0 -104 85q0 31 13 204h-178l-20 -274q-1 -15 -16 -15h-55q-104 0 -104 85q0 42 21 310t21 300 q0 15 16 15h55q59 0 81 -24.5t22 -78.5q0 -8 -11 -173h179q18 236 18 261q0 15 16 15h55q59 0 81 -24.5t22 -78.5q0 -19 -19 -291t-22 -301q-1 -15 -16 -15z"/>
<glyph glyph-name="hcircumflex" horiz-adv-x="608" unicode="ĥ" d="M352 780q-33 0 -111 82q-111 -82 -145 -82q-12 0 -31 18t-19 25q0 6 132 126q17 15 76 15q44 0 53 -15q100 -119 100 -126q0 -6 -21.5 -24.5t-33.5 -18.5zM373 124q19 209 19 235q0 67 -61 67q-47 0 -77 -45t-35 -120q-1 -21 -6 -80t-9 -106t-4 -55q0 -12 -4.5 -16 t-17.5 -4h-36q-58 0 -80 23t-22 72q0 22 5.5 83t17 205t21.5 328q1 22 5 26q3 3 16 3h39q104 0 104 -86q0 -31 -12 -182q29 49 65.5 68.5t93.5 19.5q86 0 125.5 -40.5t39.5 -140.5q0 -18 -5 -77.5t-12 -140.5t-10 -130q-1 -22 -5.5 -26.5t-21.5 -4.5h-32q-60 0 -81.5 21.5 t-21.5 66.5q0 14 2 36z"/>
<glyph glyph-name="Hbar" horiz-adv-x="685" unicode="Ħ" d="M440 434l6 83h-179l-6 -83h179zM575 0h-55q-104 0 -104 85q0 31 13 204h-178l-20 -274q-1 -15 -16 -15h-55q-104 0 -104 85q0 27 30 432h-44q-11 0 -11 11q0 22 1 33.5t6.5 27.5t19.5 24.5t36 9.5q4 66 4 72q0 15 16 15h55q54 0 77 -20.5t25 -65.5h183q4 44 4 71 q0 15 16 15h55q54 0 77 -20.5t25 -65.5h45q16 0 16 -14q0 -45 -12.5 -67.5t-52.5 -25.5l-36 -502q-1 -15 -16 -15z"/>
<glyph glyph-name="hbar" horiz-adv-x="608" unicode="ħ" d="M373 124q19 209 19 235q0 67 -61 67q-47 0 -77 -45t-35 -120q-1 -21 -6 -80t-9 -106t-4 -55q0 -12 -4.5 -16t-17.5 -4h-36q-58 0 -80 23t-22 72q0 21 4 69t13.5 158.5t17.5 242.5h-54q-11 0 -11 11q0 18 0.5 27.5t4 25t11 23t21.5 14t35 6.5q0 11 2 39q1 22 5 26 q3 3 16 3h39q92 0 103 -68h58q16 0 16 -14q0 -48 -15 -70.5t-63 -22.5q0 -2 -3 -37.5t-4 -55.5q29 49 65.5 68.5t93.5 19.5q86 0 125.5 -40.5t39.5 -140.5q0 -18 -5 -77.5t-12 -140.5t-10 -130q-1 -22 -5.5 -26.5t-21.5 -4.5h-32q-60 0 -81.5 21.5t-21.5 66.5q0 14 2 36z "/>
<glyph glyph-name="Itilde" horiz-adv-x="314" unicode="Ĩ" d="M268 895q32 0 65 30t42 30q20 0 20 -39q0 -53 -37 -94.5t-106 -41.5q-31 0 -57.5 10t-41.5 22.5t-33.5 22.5t-36.5 10q-24 0 -42.5 -16.5t-32 -32.5t-23.5 -16q-20 0 -20 40q0 52 33.5 93.5t101.5 41.5q48 0 95.5 -30t72.5 -30zM210 0h-55q-104 0 -104 85q0 42 21 310 t21 300q0 15 16 15h55q59 0 81 -24.5t22 -78.5q0 -19 -19 -291t-22 -301q-1 -15 -16 -15z"/>
<glyph glyph-name="itilde" horiz-adv-x="281" unicode="ĩ" d="M262 720q25 0 46 15t36 30t25 15q20 0 20 -39q0 -53 -37 -94.5t-106 -41.5q-40 0 -70.5 16.5t-53.5 32.5t-45 16q-24 0 -42.5 -16t-32 -32.5t-23.5 -16.5q-20 0 -20 40q0 52 33.5 93.5t101.5 41.5q38 0 68 -15t53.5 -30t46.5 -15zM180 0h-36q-58 0 -80 23t-22 72 q0 6 30 426q1 21 4 25t17 4h39q58 0 80 -22.5t22 -68.5q0 -40 -32 -439q-1 -12 -5 -16t-17 -4z"/>
<glyph glyph-name="Imacron" horiz-adv-x="314" unicode="Ī" d="M297 800h-272q-11 0 -11 11q0 18 0.5 27.5t4 25t11 23.5t22 14t35.5 6h272q16 0 16 -14q0 -48 -15 -70.5t-63 -22.5zM210 0h-55q-104 0 -104 85q0 42 21 310t21 300q0 15 16 15h55q59 0 81 -24.5t22 -78.5q0 -19 -19 -291t-22 -301q-1 -15 -16 -15z"/>
<glyph glyph-name="imacron" horiz-adv-x="281" unicode="ī" d="M273 618h-272q-11 0 -11 11q0 23 1.5 35.5t8 29t22 24t41.5 7.5h272q16 0 16 -14q0 -48 -15 -70.5t-63 -22.5zM180 0h-36q-58 0 -80 23t-22 72q0 6 30 426q1 21 4 25t17 4h39q58 0 80 -22.5t22 -68.5q0 -40 -32 -439q-1 -12 -5 -16t-17 -4z"/>
<glyph glyph-name="Ibreve" horiz-adv-x="314" unicode="Ĭ" d="M181 780q-74 0 -111.5 30t-37.5 64q0 24 19 37.5t47 13.5q21 0 32 -9t14 -20.5t14 -20.5t32 -9q30 0 60 29.5t68 29.5q43 0 43 -31q0 -40 -49 -77t-131 -37zM210 0h-55q-104 0 -104 85q0 42 21 310t21 300q0 15 16 15h55q59 0 81 -24.5t22 -78.5q0 -19 -19 -291t-22 -301 q-1 -15 -16 -15z"/>
<glyph glyph-name="ibreve" horiz-adv-x="281" unicode="ĭ" d="M147 605q-74 0 -111.5 30t-37.5 64q0 24 19 37.5t47 13.5q21 0 32 -9t14 -20.5t14 -20.5t32 -9q30 0 60 29.5t68 29.5q43 0 43 -31q0 -40 -49 -77t-131 -37zM180 0h-36q-58 0 -80 23t-22 72q0 6 30 426q1 21 4 25t17 4h39q58 0 80 -22.5t22 -68.5q0 -40 -32 -439 q-1 -12 -5 -16t-17 -4z"/>
<glyph glyph-name="Iogonek" horiz-adv-x="314" unicode="Į" d="M210 0h-45q-37 -40 -37 -73q0 -20 13 -34t26 -22.5t13 -14.5q0 -13 -30 -32t-69 -19t-59 19.5t-20 50.5q0 68 97 133q-48 17 -48 77q0 42 21 310t21 300q0 15 16 15h55q59 0 81 -24.5t22 -78.5q0 -19 -19 -291t-22 -301q-1 -15 -16 -15z"/>
<glyph glyph-name="iogonek" horiz-adv-x="281" unicode="į" d="M73 668q0 40 29 63t78 23q82 0 82 -64q0 -38 -28.5 -62t-79.5 -24q-81 0 -81 64zM180 0h-38q-37 -40 -37 -73q0 -20 13 -34t26 -22.5t13 -14.5q0 -13 -30 -32t-69 -19t-59 19.5t-20 50.5q0 69 102 136q-39 18 -39 84q0 6 30 426q1 21 4 25t17 4h39q58 0 80 -22.5 t22 -68.5q0 -40 -32 -439q-1 -12 -5 -16t-17 -4z"/>
<glyph glyph-name="Idotaccent" horiz-adv-x="314" unicode="İ" d="M100 844q0 40 29 63t78 23q82 0 82 -64q0 -38 -28.5 -62t-79.5 -24q-81 0 -81 64zM210 0h-55q-104 0 -104 85q0 42 21 310t21 300q0 15 16 15h55q59 0 81 -24.5t22 -78.5q0 -19 -19 -291t-22 -301q-1 -15 -16 -15z"/>
<glyph glyph-name="dotlessi" horiz-adv-x="280" unicode="ı" d="M179 0h-36q-58 0 -80 23t-22 72q0 6 30 426q1 21 4 25t17 4h39q58 0 80 -22.5t22 -68.5q0 -40 -32 -439q-1 -12 -5 -16t-17 -4z"/>
<glyph glyph-name="IJ" horiz-adv-x="766" unicode="Ĳ" d="M452 146q14 0 25 6.5t19.5 21.5t14 30t10.5 41.5t7.5 45t6.5 52.5q3 28 23 343q1 15 3.5 19.5t12.5 4.5h55q33 0 54 -5.5t29.5 -16t11 -19t2.5 -20.5q0 -163 -17 -323q-6 -53 -13.5 -94t-26 -89t-44.5 -79.5t-69.5 -52.5t-100.5 -21q-80 0 -127.5 37t-47.5 91q0 47 34 75 t80 28q5 0 9 -11.5t6.5 -26t13.5 -26t29 -11.5zM210 0h-55q-104 0 -104 85q0 42 21 310t21 300q0 15 16 15h55q59 0 81 -24.5t22 -78.5q0 -19 -19 -291t-22 -301q-1 -15 -16 -15z"/>
<glyph glyph-name="ij" horiz-adv-x="567" unicode="ĳ" d="M349 668q0 40 29 63t78 23q82 0 82 -64q0 -38 -28.5 -62t-79.5 -24q-81 0 -81 64zM333 121l26 414q0 9 4 13q2 2 18 2h36q47 0 76 -21t29 -47q0 -24 -32 -453q-5 -68 -22 -114t-43.5 -69t-55 -32t-64.5 -9q-65 0 -115.5 23.5t-50.5 66.5q0 22 14 37.5t35 22t36.5 8.5 t28.5 2q3 0 6.5 -8.5t11.5 -17.5t20 -9q22 0 28 34.5t14 156.5zM73 668q0 40 29 63t78 23q82 0 82 -64q0 -38 -28.5 -62t-79.5 -24q-81 0 -81 64zM180 0h-36q-58 0 -80 23t-22 72q0 6 30 426q1 21 4 25t17 4h39q58 0 80 -22.5t22 -68.5q0 -40 -32 -439q-1 -12 -5 -16t-17 -4 z"/>
<glyph glyph-name="Jcircumflex" horiz-adv-x="479" unicode="Ĵ" d="M476 780q-33 0 -111 82q-111 -82 -145 -82q-12 0 -31 18t-19 25q0 6 132 126q17 15 76 15q44 0 53 -15q100 -119 100 -126q0 -6 -21.5 -24.5t-33.5 -18.5zM165 146q14 0 25 6.5t19.5 21.5t14 30t10.5 41.5t7.5 45t6.5 52.5q3 28 23 343q1 15 3.5 19.5t12.5 4.5h55 q33 0 54 -5.5t29.5 -16t11 -19t2.5 -20.5q0 -163 -17 -323q-6 -53 -13.5 -94t-26 -89t-44.5 -79.5t-69.5 -52.5t-100.5 -21q-80 0 -127.5 37t-47.5 91q0 47 34 75t80 28q6 0 9.5 -18.5t14.5 -37.5t34 -19z"/>
<glyph glyph-name="jcircumflex" horiz-adv-x="279" unicode="ĵ" d="M256 615q-30 0 -101 102q-104 -102 -135 -102q-12 0 -31 18t-19 25q0 10 132 156q13 15 66 15q44 0 53 -15q90 -149 90 -156q0 -6 -21.5 -24.5t-33.5 -18.5zM45 121l26 414q0 9 4 13q2 2 18 2h36q47 0 76 -21t29 -47q0 -24 -32 -453q-5 -68 -22 -114t-43.5 -69t-55 -32 t-64.5 -9q-65 0 -115.5 23.5t-50.5 66.5q0 22 14 37.5t35 22t36.5 8.5t28.5 2q3 0 6.5 -8.5t11.5 -17.5t20 -9q22 0 28 34.5t14 156.5z"/>
<glyph glyph-name="Kcommaaccent" horiz-adv-x="623" unicode="Ķ" d="M282 -131q-40 0 -40 39q0 52 59 52q53 0 53 -56q0 -42 -21 -73t-53 -31q-30 0 -30 32l16 14q16 13 16 23zM598 65q0 -19 -38 -47t-81 -28q-29 0 -53.5 16.5t-42.5 40t-37 68.5t-31.5 82t-31.5 101l-38 -25l-19 -258q-1 -15 -16 -15h-55q-55 0 -79.5 22t-24.5 67 q0 32 20 288q20 261 22 318q0 15 16 15h55q60 0 80.5 -22.5t20.5 -72.5q0 -48 -10 -190q64 79 197 257q28 38 49 38q26 0 62 -46t36 -75q0 -30 -53 -88t-148 -131q29 -47 80.5 -127t85.5 -132.5t34 -55.5z"/>
<glyph glyph-name="kcommaaccent" horiz-adv-x="539" unicode="ķ" d="M240 -131q-40 0 -40 39q0 52 59 52q53 0 53 -56q0 -42 -21 -73t-53 -31q-30 0 -30 32l16 14q16 13 16 23zM516 81q0 -20 -24.5 -55.5t-63.5 -35.5q-49 0 -100.5 61t-111.5 172q-1 -14 -16 -203q-1 -12 -5 -16t-17 -4h-36q-59 0 -80.5 23.5t-21.5 74.5q0 13 1.5 29.5l5 55 t8 94.5t12.5 171.5t17 262.5q1 22 5 26q3 3 16 3h39q104 0 104 -87q0 -20 -17 -254l160 146q15 14 28 14q20 0 47.5 -45.5t27.5 -70.5q0 -53 -187 -133q43 -48 100.5 -107t83 -87t25.5 -35z"/>
<glyph glyph-name="kgreenlandic" horiz-adv-x="538" unicode="ĸ" d="M515 81q0 -20 -24.5 -55.5t-63.5 -35.5q-49 0 -100.5 61t-111.5 173q-11 -117 -16 -204q-1 -12 -5 -16t-17 -4h-36q-59 0 -80.5 23.5t-21.5 74.5q0 19 5.5 81.5t14 159.5t12.5 182q1 21 4 25t17 4h39q104 0 104 -87q0 -6 -4 -62q1 1 159 144q15 14 28 14q20 0 47.5 -45.5 t27.5 -70.5q0 -53 -187 -133q43 -48 100.5 -107t83 -87t25.5 -35z"/>
<glyph glyph-name="Lacute" horiz-adv-x="448" unicode="Ĺ" d="M179 780q-19 0 -32.5 22t-13.5 33q0 15 68 72t92 57q19 0 59 -34.5t40 -49.5q0 -22 -90.5 -61t-122.5 -39zM345 0h-190q-104 0 -104 85q0 42 21 310t21 300q0 15 16 15h55q54 0 76.5 -20.5t22.5 -64.5q0 -3 -0.5 -9t-0.5 -9l-33 -467h180q16 0 16 -14l-4 -59 q-3 -34 -18.5 -50.5t-57.5 -16.5z"/>
<glyph glyph-name="lacute" horiz-adv-x="302" unicode="ĺ" d="M164 780q-19 0 -32.5 22t-13.5 33q0 15 68 72t92 57q19 0 59 -34.5t40 -49.5q0 -22 -90.5 -61t-122.5 -39zM157 -9q-62 0 -89 33t-27 109q0 17 5 69t16 188t21 321q1 22 5 26q3 3 16 3h39q104 0 104 -86q0 -40 -17 -239.5t-17 -237.5q0 -30 15 -43t30 -15.5t15 -6.5 q0 -121 -116 -121z"/>
<glyph glyph-name="Lcommaaccent" horiz-adv-x="448" unicode="Ļ" d="M215 -131q-40 0 -40 39q0 52 59 52q53 0 53 -56q0 -42 -21 -73t-53 -31q-30 0 -30 32l16 14q16 13 16 23zM345 0h-190q-104 0 -104 85q0 42 21 310t21 300q0 15 16 15h55q54 0 76.5 -20.5t22.5 -64.5q0 -3 -0.5 -9t-0.5 -9l-33 -467h180q16 0 16 -14l-4 -59 q-3 -34 -18.5 -50.5t-57.5 -16.5z"/>
<glyph glyph-name="lcommaaccent" horiz-adv-x="302" unicode="ļ" d="M131 -131q-40 0 -40 39q0 52 59 52q53 0 53 -56q0 -42 -21 -73t-53 -31q-30 0 -30 32l16 14q16 13 16 23zM157 -9q-62 0 -89 33t-27 109q0 17 5 69t16 188t21 321q1 22 5 26q3 3 16 3h39q104 0 104 -86q0 -40 -17 -239.5t-17 -237.5q0 -30 15 -43t30 -15.5t15 -6.5 q0 -121 -116 -121z"/>
<glyph glyph-name="Lcaron" horiz-adv-x="448" unicode="Ľ" d="M77 964q33 0 111 -82q111 82 145 82q12 0 31 -18t19 -25q0 -6 -132 -126q-17 -15 -76 -15q-44 0 -53 15q-100 119 -100 126q0 6 21.5 24.5t33.5 18.5zM345 0h-190q-104 0 -104 85q0 42 21 310t21 300q0 15 16 15h55q54 0 76.5 -20.5t22.5 -64.5q0 -3 -0.5 -9t-0.5 -9 l-33 -467h180q16 0 16 -14l-4 -59q-3 -34 -18.5 -50.5t-57.5 -16.5z"/>
<glyph glyph-name="lcaron" horiz-adv-x="354" unicode="ľ" d="M157 -9q-62 0 -89 33t-27 109q0 17 5 69t16 188t21 321q1 22 5 26q3 3 16 3h39q104 0 104 -86q0 -40 -17 -239.5t-17 -237.5q0 -30 15 -43t30 -15.5t15 -6.5q0 -121 -116 -121zM337 621q-52 0 -52 53q0 37 25 56.5t60 19.5q65 0 65 -79q0 -59 -32.5 -104.5t-76.5 -45.5 q-38 0 -38 42q0 1 24.5 20.5t24.5 37.5z"/>
<glyph glyph-name="Ldot" horiz-adv-x="451" unicode="Ŀ" d="M276 374q0 35 24.5 55.5t65.5 20.5q67 0 67 -57q0 -33 -24 -54t-67 -21q-66 0 -66 56zM345 0h-190q-104 0 -104 85q0 42 21 310t21 300q0 15 16 15h55q54 0 76.5 -20.5t22.5 -64.5q0 -3 -0.5 -9t-0.5 -9l-33 -467h180q16 0 16 -14l-4 -59q-3 -34 -18.5 -50.5t-57.5 -16.5 z"/>
<glyph glyph-name="ldot" horiz-adv-x="425" unicode="ŀ" d="M276 374q0 35 24.5 55.5t65.5 20.5q67 0 67 -57q0 -33 -24 -54t-67 -21q-66 0 -66 56zM157 -9q-62 0 -89 33t-27 109q0 17 5 69t16 188t21 321q1 22 5 26q3 3 16 3h39q104 0 104 -86q0 -40 -17 -239.5t-17 -237.5q0 -30 15 -43t30 -15.5t15 -6.5q0 -121 -116 -121z"/>
<glyph glyph-name="Lslash" horiz-adv-x="464" unicode="Ł" d="M362 0h-190q-104 0 -104 85q0 28 11 184q-56 -19 -57 -19q-4 0 -11 13t-13 35.5t-6 44.5q0 39 51 57q16 6 48 16q19 239 19 279q0 15 16 15h55q54 0 76.5 -20.5t22.5 -64.5q0 -3 -0.5 -9t-0.5 -9l-9 -127q81 28 87 28q10 0 13 -8q18 -60 18 -80q0 -42 -54 -61l-75 -26 l-13 -193h180q16 0 16 -14l-4 -59q-3 -34 -18.5 -50.5t-57.5 -16.5z"/>
<glyph glyph-name="lslash" horiz-adv-x="400" unicode="ł" d="M212 -9q-62 0 -89 33t-27 109q0 11 1.5 30t5.5 59.5t7 81.5q-66 -24 -70 -24t-11 13t-13 35.5t-6 44.5q0 39 51 57l60 21q10 140 17 260q1 21 4 25t17 4h39q104 0 104 -86q0 -30 -8 -142q73 26 81 26q10 0 13 -8q18 -60 18 -80q0 -42 -54 -61l-72 -25q-12 -132 -12 -187 q0 -30 15 -43t30 -15.5t15 -6.5q0 -121 -116 -121z"/>
<glyph glyph-name="Nacute" horiz-adv-x="688" unicode="Ń" d="M391 780q-19 0 -32.5 22t-13.5 33q0 15 68 72t92 57q19 0 59 -34.5t40 -49.5q0 -22 -90.5 -61t-122.5 -39zM581 0h-82q-69 0 -90 42q-21 44 -190 403q1 -82 3.5 -232.5t3.5 -197.5q0 -15 -16 -15h-55q-55 0 -79.5 22t-24.5 67q0 32 20 288q20 252 22 318q0 15 16 15h80 q32 0 54 -6.5t35.5 -22.5t20 -27.5t15.5 -35.5q80 -201 156 -374q0 84 -1.5 243.5t-1.5 213.5q0 9 17 9h55q61 0 81 -23t20 -74q0 -64 -18.5 -314.5t-22.5 -282.5q0 -16 -18 -16z"/>
<glyph glyph-name="nacute" d="M352 615q-14 0 -32.5 17.5t-18.5 30.5q0 2 15 24.5t44 64t43 62.5q10 15 23 15q25 0 68.5 -22t43.5 -38q0 -20 -81.5 -87t-104.5 -67zM382 88q0 28 10.5 132.5t10.5 138.5q0 67 -61 67q-47 0 -73 -34t-41 -117.5t-27 -254.5q-1 -12 -5 -16t-17 -4h-36q-58 0 -80 23 t-22 72q0 6 30 426q1 22 5 26q3 3 16 3h39q98 0 104 -84q31 52 70.5 73t100.5 21q86 0 125.5 -40.5t39.5 -140.5q0 -36 -13.5 -185.5t-13.5 -162.5q0 -21 -4.5 -26t-22.5 -5h-32q-60 0 -81.5 21.5t-21.5 66.5z" unicode="ń"/>
<glyph glyph-name="Ncommaaccent" horiz-adv-x="688" unicode="Ņ" d="M292 -131q-40 0 -40 39q0 52 59 52q53 0 53 -56q0 -42 -21 -73t-53 -31q-30 0 -30 32l16 14q16 13 16 23zM581 0h-82q-69 0 -90 42q-21 44 -190 403q1 -82 3.5 -232.5t3.5 -197.5q0 -15 -16 -15h-55q-55 0 -79.5 22t-24.5 67q0 32 20 288q20 252 22 318q0 15 16 15h80 q32 0 54 -6.5t35.5 -22.5t20 -27.5t15.5 -35.5q80 -201 156 -374q0 84 -1.5 243.5t-1.5 213.5q0 9 17 9h55q61 0 81 -23t20 -74q0 -64 -18.5 -314.5t-22.5 -282.5q0 -16 -18 -16z"/>
<glyph glyph-name="ncommaaccent" d="M276 -131q-40 0 -40 39q0 52 59 52q53 0 53 -56q0 -42 -21 -73t-53 -31q-30 0 -30 32l16 14q16 13 16 23zM382 88q0 28 10.5 132.5t10.5 138.5q0 67 -61 67q-47 0 -73 -34t-41 -117.5t-27 -254.5q-1 -12 -5 -16t-17 -4h-36q-58 0 -80 23t-22 72q0 6 30 426q1 22 5 26 q3 3 16 3h39q98 0 104 -84q31 52 70.5 73t100.5 21q86 0 125.5 -40.5t39.5 -140.5q0 -36 -13.5 -185.5t-13.5 -162.5q0 -21 -4.5 -26t-22.5 -5h-32q-60 0 -81.5 21.5t-21.5 66.5z" unicode="ņ"/>
<glyph glyph-name="Ncaron" horiz-adv-x="688" unicode="Ň" d="M289 964q33 0 111 -82q111 82 145 82q12 0 31 -18t19 -25q0 -6 -132 -126q-17 -15 -76 -15q-44 0 -53 15q-100 119 -100 126q0 6 21.5 24.5t33.5 18.5zM581 0h-82q-69 0 -90 42q-21 44 -190 403q1 -82 3.5 -232.5t3.5 -197.5q0 -15 -16 -15h-55q-55 0 -79.5 22t-24.5 67 q0 32 20 288q20 252 22 318q0 15 16 15h80q32 0 54 -6.5t35.5 -22.5t20 -27.5t15.5 -35.5q80 -201 156 -374q0 84 -1.5 243.5t-1.5 213.5q0 9 17 9h55q61 0 81 -23t20 -74q0 -64 -18.5 -314.5t-22.5 -282.5q0 -16 -18 -16z"/>
<glyph glyph-name="ncaron" d="M234 819q31 0 101 -92q104 92 135 92q12 0 31 -18t19 -25q0 -9 -132 -146q-13 -15 -66 -15q-44 0 -53 15q-90 138 -90 146q0 6 21.5 24.5t33.5 18.5zM382 88q0 28 10.5 132.5t10.5 138.5q0 67 -61 67q-47 0 -73 -34t-41 -117.5t-27 -254.5q-1 -12 -5 -16t-17 -4h-36 q-58 0 -80 23t-22 72q0 6 30 426q1 22 5 26q3 3 16 3h39q98 0 104 -84q31 52 70.5 73t100.5 21q86 0 125.5 -40.5t39.5 -140.5q0 -36 -13.5 -185.5t-13.5 -162.5q0 -21 -4.5 -26t-22.5 -5h-32q-60 0 -81.5 21.5t-21.5 66.5z" unicode="ň"/>
<glyph glyph-name="napostrophe" d="M152 712q-26 0 -39 19t-13 45q0 37 26.5 56.5t63.5 19.5q65 0 65 -79q0 -71 -38 -125.5t-91 -54.5q-38 0 -38 42q0 3 32 30t32 47zM382 88q0 28 10.5 132.5t10.5 138.5q0 67 -61 67q-47 0 -73 -34t-41 -117.5t-27 -254.5q-1 -12 -5 -16t-17 -4h-36q-58 0 -80 23t-22 72 q0 6 30 426q1 22 5 26q3 3 16 3h39q98 0 104 -84q31 52 70.5 73t100.5 21q86 0 125.5 -40.5t39.5 -140.5q0 -36 -13.5 -185.5t-13.5 -162.5q0 -21 -4.5 -26t-22.5 -5h-32q-60 0 -81.5 21.5t-21.5 66.5z" unicode="ŉ"/>
<glyph glyph-name="Eng" horiz-adv-x="689" unicode="Ŋ" d="M401 -70q16 0 23 18.5t12 66.5q-34 71 -109.5 216.5t-107.5 213.5q1 -82 3.5 -232.5t3.5 -197.5q0 -15 -16 -15h-55q-55 0 -79.5 22t-24.5 67q0 32 20 288q20 252 22 318q0 15 16 15h80q32 0 54 -6.5t35.5 -22.5t20 -27.5t15.5 -35.5q70 -176 156 -374q0 84 -1.5 243.5 t-1.5 213.5q0 9 17 9h55q61 0 81 -23t20 -74q0 -69 -17 -295.5t-25 -306.5q-12 -116 -60.5 -161t-122.5 -45q-65 0 -115.5 23.5t-50.5 66.5q0 22 14 37.5t35 22t36.5 8.5t28.5 2q3 0 6.5 -8.5t11.5 -17.5t20 -9z"/>
<glyph glyph-name="eng" horiz-adv-x="622" unicode="ŋ" d="M344 -70q34 0 46 97.5t12 327.5q0 35 -11 53t-45 18q-55 0 -87 -47t-39 -131l-18 -228q-2 -20 -22 -20h-36q-58 0 -80 23t-22 72q0 6 30 426q1 18 5.5 23.5t15.5 5.5h39q98 0 104 -84q31 53 70.5 73.5t101.5 20.5q88 0 126 -41.5t38 -145.5q0 -70 -28 -380 q-17 -188 -186 -188q-64 0 -114 23.5t-50 66.5q0 22 14 37.5t35 22t36.5 8.5t28.5 2q1 0 11.5 -17.5t24.5 -17.5z"/>
<glyph glyph-name="Omacron" horiz-adv-x="711" unicode="Ō" d="M528 800h-272q-11 0 -11 11q0 18 0.5 27.5t4 25t11 23.5t22 14t35.5 6h272q16 0 16 -14q0 -48 -15 -70.5t-63 -22.5zM384 566q-49 0 -83 -26t-49 -68t-20.5 -78t-5.5 -73q0 -175 117 -175q43 0 74.5 28.5t46.5 73t21.5 84t6.5 76.5q0 158 -108 158zM405 721 q143 0 208 -78t65 -227q0 -37 -4 -74t-14.5 -80t-27 -81t-44 -73.5t-63.5 -61t-87.5 -41t-113.5 -15.5q-284 0 -284 317q0 65 11 123t37.5 112.5t67.5 93t104.5 62t144.5 23.5z"/>
<glyph glyph-name="omacron" horiz-adv-x="598" unicode="ō" d="M442 618h-272q-11 0 -11 11q0 23 1.5 35.5t8 29t22 24t41.5 7.5h272q16 0 16 -14q0 -48 -15 -70.5t-63 -22.5zM312 427q-35 0 -59.5 -18.5t-35 -49t-14.5 -56t-4 -52.5q0 -128 81 -128q33 0 57 21.5t35.5 54.5t16.5 63t5 58q0 107 -82 107zM265 -10q-236 0 -236 250 q0 64 15 118.5t48.5 101.5t94 73.5t142.5 26.5q122 0 178.5 -59.5t56.5 -174.5q0 -43 -6.5 -84t-26.5 -88.5t-52 -82t-87 -58t-127 -23.5z"/>
<glyph glyph-name="Obreve" horiz-adv-x="711" unicode="Ŏ" d="M412 780q-74 0 -111.5 30t-37.5 64q0 24 19 37.5t47 13.5q21 0 32 -9t14 -20.5t14 -20.5t32 -9q30 0 60 29.5t68 29.5q43 0 43 -31q0 -40 -49 -77t-131 -37zM384 566q-49 0 -83 -26t-49 -68t-20.5 -78t-5.5 -73q0 -175 117 -175q43 0 74.5 28.5t46.5 73t21.5 84t6.5 76.5 q0 158 -108 158zM405 721q143 0 208 -78t65 -227q0 -37 -4 -74t-14.5 -80t-27 -81t-44 -73.5t-63.5 -61t-87.5 -41t-113.5 -15.5q-284 0 -284 317q0 65 11 123t37.5 112.5t67.5 93t104.5 62t144.5 23.5z"/>
<glyph glyph-name="obreve" horiz-adv-x="598" unicode="ŏ" d="M339 605q-74 0 -111.5 30t-37.5 64q0 24 19 37.5t47 13.5q21 0 32 -9t14 -20.5t14 -20.5t32 -9q30 0 60 29.5t68 29.5q43 0 43 -31q0 -40 -49 -77t-131 -37zM312 427q-35 0 -59.5 -18.5t-35 -49t-14.5 -56t-4 -52.5q0 -128 81 -128q33 0 57 21.5t35.5 54.5t16.5 63t5 58 q0 107 -82 107zM265 -10q-236 0 -236 250q0 64 15 118.5t48.5 101.5t94 73.5t142.5 26.5q122 0 178.5 -59.5t56.5 -174.5q0 -43 -6.5 -84t-26.5 -88.5t-52 -82t-87 -58t-127 -23.5z"/>
<glyph glyph-name="Ohungarumlaut" horiz-adv-x="711" unicode="Ő" d="M508 780q-19 0 -32.5 22t-13.5 33q0 15 68 72t92 57q19 0 59 -34.5t40 -49.5q0 -22 -90.5 -61t-122.5 -39zM249 780q-19 0 -32.5 22t-13.5 33q0 15 68 72t92 57q19 0 59 -34.5t40 -49.5q0 -22 -90.5 -61t-122.5 -39zM384 566q-49 0 -83 -26t-49 -68t-20.5 -78t-5.5 -73 q0 -175 117 -175q43 0 74.5 28.5t46.5 73t21.5 84t6.5 76.5q0 158 -108 158zM405 721q143 0 208 -78t65 -227q0 -37 -4 -74t-14.5 -80t-27 -81t-44 -73.5t-63.5 -61t-87.5 -41t-113.5 -15.5q-284 0 -284 317q0 65 11 123t37.5 112.5t67.5 93t104.5 62t144.5 23.5z"/>
<glyph glyph-name="ohungarumlaut" horiz-adv-x="598" unicode="ő" d="M465 615q-14 0 -32.5 17.5t-18.5 30.5q0 2 15 24.5t44 64t43 62.5q10 15 23 15q25 0 68.5 -22t43.5 -38q0 -20 -81.5 -87t-104.5 -67zM208 615q-14 0 -32.5 17.5t-18.5 30.5q0 2 15 24.5t44 64t43 62.5q10 15 23 15q25 0 68.5 -22t43.5 -38q0 -20 -81.5 -87t-104.5 -67z M312 427q-35 0 -59.5 -18.5t-35 -49t-14.5 -56t-4 -52.5q0 -128 81 -128q33 0 57 21.5t35.5 54.5t16.5 63t5 58q0 107 -82 107zM265 -10q-236 0 -236 250q0 64 15 118.5t48.5 101.5t94 73.5t142.5 26.5q122 0 178.5 -59.5t56.5 -174.5q0 -43 -6.5 -84t-26.5 -88.5t-52 -82 t-87 -58t-127 -23.5z"/>
<glyph glyph-name="OE" horiz-adv-x="921" unicode="Œ" d="M380 566q-47 0 -80.5 -26t-48 -68t-20.5 -78.5t-6 -73.5q0 -88 30 -131t84 -43q45 0 77.5 28.5t47 73.5t21 85t6.5 78q0 155 -111 155zM805 0h-230q-61 0 -77 66q-54 -76 -181 -76q-77 0 -133 25t-86.5 70t-44.5 99.5t-14 122.5q0 82 19.5 153.5t59.5 131t109.5 94.5 t161.5 35q90 0 126 -41q4 30 33 30h333q16 0 16 -14l-4 -59q-3 -34 -18.5 -50.5t-57.5 -16.5h-138l-10 -141h142q16 0 16 -14l-4 -59q-3 -34 -18.5 -50.5t-57.5 -16.5h-87l-11 -149h220q16 0 16 -14l-4 -59q-3 -34 -18.5 -50.5t-57.5 -16.5z"/>
<glyph glyph-name="oe" horiz-adv-x="893" unicode="œ" d="M652 427q-72 0 -88 -130q63 1 101 21.5t38 56.5q0 22 -13.5 37t-37.5 15zM312 427q-35 0 -59.5 -18.5t-35 -49t-14.5 -56t-4 -52.5q0 -128 81 -128q33 0 57 21.5t35.5 54.5t16.5 63t5 58q0 107 -82 107zM265 -10q-236 0 -236 249q0 64 15.5 119t48 101.5t91 73.5 t137.5 27q66 0 103 -16t68 -53q72 69 200 69q92 0 137 -42t45 -109q0 -38 -15 -69t-37 -50.5t-54 -34t-59.5 -21.5t-61 -11t-51 -5t-35.5 -1q10 -102 95 -102q24 0 40.5 8.5t23.5 19t15.5 19t17.5 8.5q11 0 26 -4.5t32.5 -22t17.5 -44.5q0 -54 -60 -81.5t-137 -27.5 q-48 0 -95 20.5t-76 56.5q-27 -34 -80.5 -55.5t-115.5 -21.5z"/>
<glyph glyph-name="Racute" horiz-adv-x="617" unicode="Ŕ" d="M342 780q-19 0 -32.5 22t-13.5 33q0 15 68 72t92 57q19 0 59 -34.5t40 -49.5q0 -22 -90.5 -61t-122.5 -39zM317 570q-22 0 -59 -5q-3 -70 -11 -187q35 -8 61 -8q30 0 51 11.5t30.5 30.5t13.5 36.5t4 36.5q0 85 -90 85zM205 0h-50q-55 0 -79.5 22t-24.5 67q0 32 20 288 q3 46 17 263q3 46 6 58t13 12q46 0 126 5t104 5q240 0 240 -223q0 -171 -130 -232l84 -120q47 -68 47 -80q0 -19 -37 -47t-89 -28q-30 0 -54.5 19.5t-43 57.5t-31.5 77.5t-26 95.5q-36 2 -59 7q-10 -150 -17 -232q-1 -15 -16 -15z"/>
<glyph glyph-name="racute" horiz-adv-x="479" unicode="ŕ" d="M273 615q-14 0 -32.5 17.5t-18.5 30.5q0 2 15 24.5t44 64t43 62.5q10 15 23 15q25 0 68.5 -22t43.5 -38q0 -20 -81.5 -87t-104.5 -67zM364 311q-45 0 -45 13q0 9 1 24t1 23q0 50 -30 50q-59 0 -70 -146q-2 -32 -7 -95t-8.5 -106.5t-3.5 -53.5q0 -20 -22 -20h-36 q-58 0 -80 23t-22 72q0 6 30 426q2 29 21 29h39q94 0 103 -76q21 43 59.5 64.5t75.5 21.5q43 0 76 -30t33 -86t-32 -94.5t-83 -38.5z"/>
<glyph glyph-name="Rcommaaccent" horiz-adv-x="617" unicode="Ŗ" d="M273 -131q-40 0 -40 39q0 52 59 52q53 0 53 -56q0 -42 -21 -73t-53 -31q-30 0 -30 32l16 14q16 13 16 23zM317 570q-22 0 -59 -5q-3 -70 -11 -187q35 -8 61 -8q30 0 51 11.5t30.5 30.5t13.5 36.5t4 36.5q0 85 -90 85zM205 0h-50q-55 0 -79.5 22t-24.5 67q0 32 20 288 q3 46 17 263q3 46 6 58t13 12q46 0 126 5t104 5q240 0 240 -223q0 -171 -130 -232l84 -120q47 -68 47 -80q0 -19 -37 -47t-89 -28q-30 0 -54.5 19.5t-43 57.5t-31.5 77.5t-26 95.5q-36 2 -59 7q-10 -150 -17 -232q-1 -15 -16 -15z"/>
<glyph glyph-name="rcommaaccent" horiz-adv-x="479" unicode="ŗ" d="M108 -131q-40 0 -40 39q0 52 59 52q53 0 53 -56q0 -42 -21 -73t-53 -31q-30 0 -30 32l16 14q16 13 16 23zM364 311q-45 0 -45 13q0 9 1 24t1 23q0 50 -30 50q-59 0 -70 -146q-2 -32 -7 -95t-8.5 -106.5t-3.5 -53.5q0 -20 -22 -20h-36q-58 0 -80 23t-22 72q0 6 30 426 q2 29 21 29h39q94 0 103 -76q21 43 59.5 64.5t75.5 21.5q43 0 76 -30t33 -86t-32 -94.5t-83 -38.5z"/>
<glyph glyph-name="Rcaron" horiz-adv-x="617" unicode="Ř" d="M240 964q33 0 111 -82q111 82 145 82q12 0 31 -18t19 -25q0 -6 -132 -126q-17 -15 -76 -15q-44 0 -53 15q-100 119 -100 126q0 6 21.5 24.5t33.5 18.5zM317 570q-22 0 -59 -5q-3 -70 -11 -187q35 -8 61 -8q30 0 51 11.5t30.5 30.5t13.5 36.5t4 36.5q0 85 -90 85zM205 0 h-50q-55 0 -79.5 22t-24.5 67q0 32 20 288q3 46 17 263q3 46 6 58t13 12q46 0 126 5t104 5q240 0 240 -223q0 -171 -130 -232l84 -120q47 -68 47 -80q0 -19 -37 -47t-89 -28q-30 0 -54.5 19.5t-43 57.5t-31.5 77.5t-26 95.5q-36 2 -59 7q-10 -150 -17 -232q-1 -15 -16 -15z "/>
<glyph glyph-name="rcaron" horiz-adv-x="479" unicode="ř" d="M169 819q31 0 101 -92q104 92 135 92q12 0 31 -18t19 -25q0 -9 -132 -146q-13 -15 -66 -15q-44 0 -53 15q-90 138 -90 146q0 6 21.5 24.5t33.5 18.5zM364 311q-45 0 -45 13q0 9 1 24t1 23q0 50 -30 50q-59 0 -70 -146q-2 -32 -7 -95t-8.5 -106.5t-3.5 -53.5 q0 -20 -22 -20h-36q-58 0 -80 23t-22 72q0 6 30 426q2 29 21 29h39q94 0 103 -76q21 43 59.5 64.5t75.5 21.5q43 0 76 -30t33 -86t-32 -94.5t-83 -38.5z"/>
<glyph glyph-name="Sacute" horiz-adv-x="541" unicode="Ś" d="M318 780q-19 0 -32.5 22t-13.5 33q0 15 68 72t92 57q19 0 59 -34.5t40 -49.5q0 -22 -90.5 -61t-122.5 -39zM326 720q91 0 138 -40t47 -108q0 -55 -31 -85t-89 -30q-18 0 -23 3.5t-5 14.5q0 93 -64 93q-33 0 -57.5 -20t-24.5 -50q0 -22 15.5 -39t40 -28.5t54 -24t59.5 -29 t54.5 -38.5t40 -57.5t15.5 -81.5q0 -93 -59.5 -151.5t-171.5 -58.5q-93 0 -163.5 37t-70.5 73q0 67 8 95.5t27 28.5q14 0 38 -19.5t59 -39t76 -19.5q75 0 75 51q0 23 -19 40t-48 27t-62.5 26.5t-62.5 37t-48 60.5t-19 95q0 62 24 109.5t64 74.5t86 40t97 13z"/>
<glyph glyph-name="sacute" horiz-adv-x="470" unicode="ś" d="M285 615q-14 0 -32.5 17.5t-18.5 30.5q0 2 15 24.5t44 64t43 62.5q10 15 23 15q25 0 68.5 -22t43.5 -38q0 -20 -81.5 -87t-104.5 -67zM274 560q81 0 123 -32.5t42 -86.5q0 -44 -27.5 -67t-79.5 -23q-14 0 -19 3t-5 11q-1 18 -3 29.5t-16 24.5t-39 13q-28 0 -45 -13.5 t-17 -33.5q0 -22 24.5 -38t59.5 -28.5t70 -29t59.5 -51t24.5 -84.5q0 -74 -53 -119t-151 -45q-73 0 -142.5 21t-69.5 63q0 23 16 49.5t42 26.5q10 0 45.5 -18.5t86.5 -18.5q64 0 64 33q0 15 -12 26.5t-31.5 20t-42.5 17t-46.5 21.5t-43 30.5t-31.5 46.5t-12 67q0 49 20 86 t53.5 58t72.5 31t83 10z"/>
<glyph glyph-name="Scircumflex" horiz-adv-x="541" unicode="Ŝ" d="M437 780q-33 0 -111 82q-111 -82 -145 -82q-12 0 -31 18t-19 25q0 6 132 126q17 15 76 15q44 0 53 -15q100 -119 100 -126q0 -6 -21.5 -24.5t-33.5 -18.5zM326 720q91 0 138 -40t47 -108q0 -55 -31 -85t-89 -30q-18 0 -23 3.5t-5 14.5q0 93 -64 93q-33 0 -57.5 -20 t-24.5 -50q0 -22 15.5 -39t40 -28.5t54 -24t59.5 -29t54.5 -38.5t40 -57.5t15.5 -81.5q0 -93 -59.5 -151.5t-171.5 -58.5q-93 0 -163.5 37t-70.5 73q0 67 8 95.5t27 28.5q14 0 38 -19.5t59 -39t76 -19.5q75 0 75 51q0 23 -19 40t-48 27t-62.5 26.5t-62.5 37t-48 60.5t-19 95 q0 62 24 109.5t64 74.5t86 40t97 13z"/>
<glyph glyph-name="scircumflex" horiz-adv-x="470" unicode="ŝ" d="M398 615q-30 0 -101 102q-104 -102 -135 -102q-12 0 -31 18t-19 25q0 10 132 156q13 15 66 15q44 0 53 -15q90 -149 90 -156q0 -6 -21.5 -24.5t-33.5 -18.5zM274 560q81 0 123 -32.5t42 -86.5q0 -44 -27.5 -67t-79.5 -23q-14 0 -19 3t-5 11q-1 18 -3 29.5t-16 24.5 t-39 13q-28 0 -45 -13.5t-17 -33.5q0 -22 24.5 -38t59.5 -28.5t70 -29t59.5 -51t24.5 -84.5q0 -74 -53 -119t-151 -45q-73 0 -142.5 21t-69.5 63q0 23 16 49.5t42 26.5q10 0 45.5 -18.5t86.5 -18.5q64 0 64 33q0 15 -12 26.5t-31.5 20t-42.5 17t-46.5 21.5t-43 30.5 t-31.5 46.5t-12 67q0 49 20 86t53.5 58t72.5 31t83 10z"/>
<glyph glyph-name="uni015E" horiz-adv-x="542" unicode="Ş" d="M327 720q91 0 138 -40t47 -108q0 -55 -31 -85t-89 -30q-18 0 -23 3.5t-5 14.5q0 93 -64 93q-33 0 -57.5 -20t-24.5 -50q0 -22 15.5 -39t40 -28.5t54.5 -24t59.5 -29t54 -38.5t40 -57.5t15.5 -81.5q0 -88 -53 -145t-153 -64l-4 -31q96 0 96 -65q0 -42 -34 -68.5t-88 -26.5 q-32 0 -60 10.5t-28 38.5q0 14 6 28t13 14q2 0 19.5 -13.5t38.5 -13.5q34 0 34 21q0 18 -37.5 30.5t-37.5 14.5q0 20 13 63q-79 9 -134.5 42.5t-55.5 64.5q0 67 8 95.5t27 28.5q14 0 38 -19.5t59 -39t76 -19.5q75 0 75 51q0 23 -19 40t-48 27t-62.5 26.5t-62.5 37t-48 60.5 t-19 95q0 62 24 109.5t64 74.5t86 40t97 13z"/>
<glyph glyph-name="uni015F" horiz-adv-x="471" unicode="ş" d="M275 560q81 0 123 -32.5t42 -86.5q0 -44 -27.5 -67t-79.5 -23q-14 0 -19 3t-5 11q-1 18 -3 29.5t-16 24.5t-39 13q-28 0 -45 -13.5t-17 -33.5q0 -22 24.5 -38t59.5 -28.5t70 -29t59.5 -51t24.5 -84.5q0 -69 -45 -112.5t-130 -50.5l-4 -31q96 0 96 -65q0 -42 -34 -68.5 t-88 -26.5q-32 0 -60 10.5t-28 38.5q0 14 6 28t13 14q2 0 19.5 -13.5t38.5 -13.5q34 0 34 21q0 18 -37.5 30.5t-37.5 14.5q0 19 13 62q-68 5 -120 25.5t-52 56.5q0 23 16 49.5t42 26.5q10 0 45.5 -18.5t86.5 -18.5q64 0 64 33q0 20 -22.5 34.5t-54.5 26t-64.5 28.5t-55 52.5 t-22.5 87.5q0 49 20 86t53.5 58t72.5 31t83 10z"/>
<glyph glyph-name="Scaron" horiz-adv-x="541" unicode="Š" d="M216 964q33 0 111 -82q111 82 145 82q12 0 31 -18t19 -25q0 -6 -132 -126q-17 -15 -76 -15q-44 0 -53 15q-100 119 -100 126q0 6 21.5 24.5t33.5 18.5zM326 720q91 0 138 -40t47 -108q0 -55 -31 -85t-89 -30q-18 0 -23 3.5t-5 14.5q0 93 -64 93q-33 0 -57.5 -20 t-24.5 -50q0 -22 15.5 -39t40 -28.5t54 -24t59.5 -29t54.5 -38.5t40 -57.5t15.5 -81.5q0 -93 -59.5 -151.5t-171.5 -58.5q-93 0 -163.5 37t-70.5 73q0 67 8 95.5t27 28.5q14 0 38 -19.5t59 -39t76 -19.5q75 0 75 51q0 23 -19 40t-48 27t-62.5 26.5t-62.5 37t-48 60.5t-19 95 q0 62 24 109.5t64 74.5t86 40t97 13z"/>
<glyph glyph-name="scaron" horiz-adv-x="470" unicode="š" d="M188 819q31 0 101 -92q104 92 135 92q12 0 31 -18t19 -25q0 -9 -132 -146q-13 -15 -66 -15q-44 0 -53 15q-90 138 -90 146q0 6 21.5 24.5t33.5 18.5zM274 560q81 0 123 -32.5t42 -86.5q0 -44 -27.5 -67t-79.5 -23q-14 0 -19 3t-5 11q-1 18 -3 29.5t-16 24.5t-39 13 q-28 0 -45 -13.5t-17 -33.5q0 -22 24.5 -38t59.5 -28.5t70 -29t59.5 -51t24.5 -84.5q0 -74 -53 -119t-151 -45q-73 0 -142.5 21t-69.5 63q0 23 16 49.5t42 26.5q10 0 45.5 -18.5t86.5 -18.5q64 0 64 33q0 15 -12 26.5t-31.5 20t-42.5 17t-46.5 21.5t-43 30.5t-31.5 46.5 t-12 67q0 49 20 86t53.5 58t72.5 31t83 10z"/>
<glyph glyph-name="uni0162" horiz-adv-x="544" unicode="Ţ" d="M483 570h-108l-38 -555q-1 -15 -11 -15h-36l-5 -40q96 0 96 -65q0 -42 -34 -68.5t-88 -26.5q-32 0 -60 10.5t-28 38.5q0 14 6 28t13 14q2 0 19.5 -13.5t38.5 -13.5q34 0 34 21q0 18 -37.5 30.5t-37.5 14.5q0 25 18 75q-58 16 -58 80q0 20 34 485h-160q-11 0 -11 14l3 56 q4 70 67 70h447q16 0 16 -14l-4 -59q-3 -34 -18.5 -50.5t-57.5 -16.5z"/>
<glyph glyph-name="uni0163" horiz-adv-x="400" unicode="ţ" d="M309 415h-53q-19 -211 -19 -244q0 -25 6 -34t20 -9q17 0 34 13t25 13q19 0 19 -45q0 -116 -129 -119l-4 -30q96 0 96 -65q0 -42 -34 -68.5t-88 -26.5q-32 0 -60 10.5t-28 38.5q0 14 6 28t13 14q2 0 19.5 -13.5t38.5 -13.5q34 0 34 21q0 18 -37.5 30.5t-37.5 14.5 q0 22 15 69q-78 24 -78 127q0 18 2.5 47t8.5 97t12 145h-53q-11 0 -11 14l3 51q2 32 16 51t56 19q4 11 12 33.5t14.5 39.5t14 35.5t14.5 28.5t12 10h29q74 0 74 -88q0 -20 -3 -59h105q16 0 16 -14l-4 -54q-3 -34 -18.5 -50.5t-57.5 -16.5z"/>
<glyph glyph-name="Tcaron" horiz-adv-x="544" unicode="Ť" d="M196 964q33 0 111 -82q111 82 145 82q12 0 31 -18t19 -25q0 -6 -132 -126q-17 -15 -76 -15q-44 0 -53 15q-100 119 -100 126q0 6 21.5 24.5t33.5 18.5zM483 570h-108l-38 -555q-1 -15 -11 -15h-55q-104 0 -104 85q0 20 34 485h-160q-11 0 -11 14l3 56q4 70 67 70h447 q16 0 16 -14l-4 -59q-3 -34 -18.5 -50.5t-57.5 -16.5z"/>
<glyph glyph-name="tcaron" horiz-adv-x="484" unicode="ť" d="M309 415h-53q-19 -211 -19 -244q0 -25 6 -34t20 -9q17 0 34 13t25 13q19 0 19 -45q0 -119 -133 -119q-141 0 -141 136q0 18 2.5 47t8.5 97t12 145h-53q-11 0 -11 14l3 51q2 32 16 51t56 19q4 11 12 33.5t14.5 39.5t14 35.5t14.5 28.5t12 10h29q74 0 74 -88q0 -20 -3 -59 h105q16 0 16 -14l-4 -54q-3 -34 -18.5 -50.5t-57.5 -16.5zM463 621q-52 0 -52 53q0 37 25 56.5t60 19.5q65 0 65 -79q0 -59 -32.5 -104.5t-76.5 -45.5q-38 0 -38 42q0 1 24.5 20.5t24.5 37.5z"/>
<glyph glyph-name="Tbar" horiz-adv-x="567" unicode="Ŧ" d="M496 570h-108l-6 -90h131q16 0 16 -14q0 -48 -15 -70.5t-63 -22.5h-77l-24 -358q-1 -15 -11 -15h-55q-104 0 -104 85q0 2 18 288h-137q-11 0 -11 11q0 22 1.5 34.5t7.5 29t22 24.5t42 8h84q2 23 7 90h-160q-11 0 -11 14l3 56q4 70 67 70h447q16 0 16 -14l-4 -59 q-3 -34 -18.5 -50.5t-57.5 -16.5z"/>
<glyph glyph-name="tbar" horiz-adv-x="404" unicode="ŧ" d="M297 241h-54q-3 -47 -3 -70q0 -25 6 -34t20 -9q16 0 34 13t25 13q19 0 19 -45q0 -119 -133 -119q-141 0 -141 136q0 25 9 115h-54q-11 0 -11 11q0 23 1.5 35.5t8 29t22.5 24t42 7.5l5 67h-53q-11 0 -11 14l3 51q2 32 16 51t56 19q4 11 12 33.5t14.5 39.5t14 35.5 t14.5 28.5t12 10h29q74 0 74 -88q0 -20 -3 -59h105q16 0 16 -14l-4 -54q-3 -34 -18.5 -50.5t-57.5 -16.5h-53l-7 -67h107q16 0 16 -14q0 -48 -15 -70.5t-63 -22.5z"/>
<glyph glyph-name="Utilde" horiz-adv-x="659" unicode="Ũ" d="M454 895q32 0 65 30t42 30q20 0 20 -39q0 -53 -37 -94.5t-106 -41.5q-31 0 -57.5 10t-41.5 22.5t-33.5 22.5t-36.5 10q-24 0 -42.5 -16.5t-32 -32.5t-23.5 -16q-20 0 -20 40q0 52 33.5 93.5t101.5 41.5q38 0 68 -15t53.5 -30t46.5 -15zM603 326q-3 -31 -7 -56.5t-14 -62 t-23.5 -64.5t-37 -58t-53.5 -50t-73.5 -32.5t-96.5 -12.5q-123 0 -182 65.5t-59 171.5q0 53 16 246.5t17 206.5q1 30 17 30h55q59 0 81 -24.5t22 -78.5q0 -4 -10.5 -158.5t-10.5 -174.5q0 -24 1.5 -40t7.5 -39.5t22 -36t41 -12.5q97 0 111 197q24 297 24 336q0 20 3 25.5 t13 5.5h55q61 0 79.5 -19t18.5 -53q0 -142 -17 -312z"/>
<glyph glyph-name="utilde" horiz-adv-x="600" unicode="ũ" d="M413 720q25 0 46 15t36 30t25 15q20 0 20 -39q0 -53 -37 -94.5t-106 -41.5q-40 0 -70.5 16.5t-53.5 32.5t-45 16q-24 0 -42.5 -16t-32 -32.5t-23.5 -16.5q-20 0 -20 40q0 52 33.5 93.5t101.5 41.5q49 0 96 -30t72 -30zM232 465q0 -29 -10.5 -138.5t-10.5 -128.5 q0 -34 17.5 -54t48.5 -20q22 0 39.5 15.5t28.5 44t19 60.5t12.5 74.5t7 76t5 74.5t4.5 61t22 20h36q58 0 80 -23t22 -72q0 -6 -30 -426q-2 -21 -4.5 -25t-16.5 -4h-39q-98 0 -104 82q-53 -92 -154 -92q-74 0 -117.5 45t-43.5 113q0 36 10.5 183.5t14.5 187.5q1 18 7.5 24.5 t20.5 6.5h32q59 0 81 -21t22 -64z"/>
<glyph glyph-name="Umacron" horiz-adv-x="659" unicode="Ū" d="M483 800h-272q-11 0 -11 11q0 18 0.5 27.5t4 25t11 23.5t22 14t35.5 6h272q16 0 16 -14q0 -48 -15 -70.5t-63 -22.5zM603 326q-3 -31 -7 -56.5t-14 -62t-23.5 -64.5t-37 -58t-53.5 -50t-73.5 -32.5t-96.5 -12.5q-123 0 -182 65.5t-59 171.5q0 53 16 246.5t17 206.5 q1 30 17 30h55q59 0 81 -24.5t22 -78.5q0 -4 -10.5 -158.5t-10.5 -174.5q0 -24 1.5 -40t7.5 -39.5t22 -36t41 -12.5q97 0 111 197q24 297 24 336q0 20 3 25.5t13 5.5h55q61 0 79.5 -19t18.5 -53q0 -142 -17 -312z"/>
<glyph glyph-name="umacron" horiz-adv-x="600" unicode="ū" d="M430 618h-272q-11 0 -11 11q0 23 1.5 35.5t8 29t22 24t41.5 7.5h272q16 0 16 -14q0 -48 -15 -70.5t-63 -22.5zM232 465q0 -29 -10.5 -138.5t-10.5 -128.5q0 -34 17.5 -54t48.5 -20q22 0 39.5 15.5t28.5 44t19 60.5t12.5 74.5t7 76t5 74.5t4.5 61t22 20h36q58 0 80 -23 t22 -72q0 -6 -30 -426q-2 -21 -4.5 -25t-16.5 -4h-39q-98 0 -104 82q-53 -92 -154 -92q-74 0 -117.5 45t-43.5 113q0 36 10.5 183.5t14.5 187.5q1 18 7.5 24.5t20.5 6.5h32q59 0 81 -21t22 -64z"/>
<glyph glyph-name="Ubreve" horiz-adv-x="659" unicode="Ŭ" d="M367 780q-74 0 -111.5 30t-37.5 64q0 24 19 37.5t47 13.5q21 0 32 -9t14 -20.5t14 -20.5t32 -9q30 0 60 29.5t68 29.5q43 0 43 -31q0 -40 -49 -77t-131 -37zM603 326q-3 -31 -7 -56.5t-14 -62t-23.5 -64.5t-37 -58t-53.5 -50t-73.5 -32.5t-96.5 -12.5q-123 0 -182 65.5 t-59 171.5q0 53 16 246.5t17 206.5q1 30 17 30h55q59 0 81 -24.5t22 -78.5q0 -4 -10.5 -158.5t-10.5 -174.5q0 -24 1.5 -40t7.5 -39.5t22 -36t41 -12.5q97 0 111 197q24 297 24 336q0 20 3 25.5t13 5.5h55q61 0 79.5 -19t18.5 -53q0 -142 -17 -312z"/>
<glyph glyph-name="ubreve" horiz-adv-x="600" unicode="ŭ" d="M316 605q-74 0 -111.5 30t-37.5 64q0 24 19 37.5t47 13.5q21 0 32 -9t14 -20.5t14 -20.5t32 -9q30 0 60 29.5t68 29.5q43 0 43 -31q0 -40 -49 -77t-131 -37zM232 465q0 -29 -10.5 -138.5t-10.5 -128.5q0 -34 17.5 -54t48.5 -20q22 0 39.5 15.5t28.5 44t19 60.5t12.5 74.5 t7 76t5 74.5t4.5 61t22 20h36q58 0 80 -23t22 -72q0 -6 -30 -426q-2 -21 -4.5 -25t-16.5 -4h-39q-98 0 -104 82q-53 -92 -154 -92q-74 0 -117.5 45t-43.5 113q0 36 10.5 183.5t14.5 187.5q1 18 7.5 24.5t20.5 6.5h32q59 0 81 -21t22 -64z"/>
<glyph glyph-name="Uring" horiz-adv-x="659" unicode="Ů" d="M375 882q-13 0 -19.5 -8.5t-6.5 -20.5q0 -25 22 -25q26 0 26 31q0 23 -22 23zM379 931q41 0 63.5 -18t22.5 -47q0 -31 -23 -58.5t-75 -27.5q-43 0 -64 19.5t-21 48.5q0 34 25 58.5t72 24.5zM603 326q-3 -31 -7 -56.5t-14 -62t-23.5 -64.5t-37 -58t-53.5 -50t-73.5 -32.5 t-96.5 -12.5q-123 0 -182 65.5t-59 171.5q0 53 16 246.5t17 206.5q1 30 17 30h55q59 0 81 -24.5t22 -78.5q0 -4 -10.5 -158.5t-10.5 -174.5q0 -24 1.5 -40t7.5 -39.5t22 -36t41 -12.5q97 0 111 197q24 297 24 336q0 20 3 25.5t13 5.5h55q61 0 79.5 -19t18.5 -53 q0 -142 -17 -312z"/>
<glyph glyph-name="uring" horiz-adv-x="600" unicode="ů" d="M325 707q-13 0 -19.5 -8.5t-6.5 -20.5q0 -25 22 -25q26 0 26 31q0 23 -22 23zM329 756q41 0 63.5 -18t22.5 -47q0 -31 -23 -58.5t-75 -27.5q-43 0 -64 19.5t-21 48.5q0 33 25 58t72 25zM232 465q0 -29 -10.5 -138.5t-10.5 -128.5q0 -34 17.5 -54t48.5 -20q22 0 39.5 15.5 t28.5 44t19 60.5t12.5 74.5t7 76t5 74.5t4.5 61t22 20h36q58 0 80 -23t22 -72q0 -6 -30 -426q-2 -21 -4.5 -25t-16.5 -4h-39q-98 0 -104 82q-53 -92 -154 -92q-74 0 -117.5 45t-43.5 113q0 36 10.5 183.5t14.5 187.5q1 18 7.5 24.5t20.5 6.5h32q59 0 81 -21t22 -64z"/>
<glyph glyph-name="Uhungarumlaut" horiz-adv-x="659" unicode="Ű" d="M438 780q-19 0 -32.5 22t-13.5 33q0 15 68 72t92 57q19 0 59 -34.5t40 -49.5q0 -22 -90.5 -61t-122.5 -39zM179 780q-19 0 -32.5 22t-13.5 33q0 15 68 72t92 57q19 0 59 -34.5t40 -49.5q0 -22 -90.5 -61t-122.5 -39zM603 326q-3 -31 -7 -56.5t-14 -62t-23.5 -64.5 t-37 -58t-53.5 -50t-73.5 -32.5t-96.5 -12.5q-123 0 -182 65.5t-59 171.5q0 53 16 246.5t17 206.5q1 30 17 30h55q59 0 81 -24.5t22 -78.5q0 -4 -10.5 -158.5t-10.5 -174.5q0 -24 1.5 -40t7.5 -39.5t22 -36t41 -12.5q97 0 111 197q24 297 24 336q0 20 3 25.5t13 5.5h55 q61 0 79.5 -19t18.5 -53q0 -142 -17 -312z"/>
<glyph glyph-name="uhungarumlaut" horiz-adv-x="600" unicode="ű" d="M442 615q-14 0 -32.5 17.5t-18.5 30.5q0 2 15 24.5t44 64t43 62.5q10 15 23 15q25 0 68.5 -22t43.5 -38q0 -20 -81.5 -87t-104.5 -67zM185 615q-14 0 -32.5 17.5t-18.5 30.5q0 2 15 24.5t44 64t43 62.5q10 15 23 15q25 0 68.5 -22t43.5 -38q0 -20 -81.5 -87t-104.5 -67z M232 465q0 -29 -10.5 -138.5t-10.5 -128.5q0 -34 17.5 -54t48.5 -20q22 0 39.5 15.5t28.5 44t19 60.5t12.5 74.5t7 76t5 74.5t4.5 61t22 20h36q58 0 80 -23t22 -72q0 -6 -30 -426q-2 -21 -4.5 -25t-16.5 -4h-39q-98 0 -104 82q-53 -92 -154 -92q-74 0 -117.5 45t-43.5 113 q0 36 10.5 183.5t14.5 187.5q1 18 7.5 24.5t20.5 6.5h32q59 0 81 -21t22 -64z"/>
<glyph glyph-name="Uogonek" horiz-adv-x="660" unicode="Ų" d="M603 326q-5 -44 -11.5 -78.5t-25 -83t-46 -81.5t-76.5 -59.5t-114 -31.5q-29 -35 -29 -65q0 -20 13 -34t26 -22.5t13 -14.5q0 -13 -30 -32t-69 -19t-59 19.5t-20 50.5q0 60 76 118q-99 12 -146.5 75.5t-47.5 158.5q0 53 16 246.5t17 206.5q1 30 17 30h55q59 0 81 -24.5 t22 -78.5q0 -4 -10.5 -158.5t-10.5 -174.5q0 -24 1.5 -40t7.5 -39.5t22 -36t41 -12.5q97 0 111 197q24 297 24 336q0 20 3 25.5t13 5.5h55q61 0 79.5 -19t18.5 -53q0 -142 -17 -312z"/>
<glyph glyph-name="uogonek" horiz-adv-x="600" unicode="ų" d="M232 465q0 -29 -10.5 -138.5t-10.5 -128.5q0 -34 17.5 -54t48.5 -20q22 0 39.5 15.5t28.5 44t19 60.5t12.5 74.5t7 76t5 74.5t4.5 61t22 20h36q58 0 80 -23t22 -72q0 -6 -30 -426q-2 -21 -6.5 -25t-28.5 -4q-37 -40 -37 -73q0 -20 13 -34t26 -22.5t13 -14.5 q0 -13 -30 -32t-69 -19t-59 19.5t-20 50.5q0 68 93 130q-55 15 -59 77q-53 -92 -154 -92q-74 0 -117.5 45t-43.5 113q0 36 10.5 183.5t14.5 187.5q1 18 7.5 24.5t20.5 6.5h32q59 0 81 -21t22 -64z"/>
<glyph glyph-name="Wcircumflex" horiz-adv-x="946" unicode="Ŵ" d="M631 780q-33 0 -111 82q-111 -82 -145 -82q-12 0 -31 18t-19 25q0 6 132 126q17 15 76 15q44 0 53 -15q100 -119 100 -126q0 -6 -21.5 -24.5t-33.5 -18.5zM668 149q36 184 91 532q3 19 10.5 24.5t34.5 5.5q17 0 34 -2t42 -8.5t40.5 -23.5t15.5 -43q0 -59 -72.5 -318.5 t-93.5 -296.5q-11 -19 -39 -19h-95q-47 0 -70.5 32.5t-28.5 80.5l-50 449q-67 -498 -89 -543q-10 -19 -39 -19h-95q-45 0 -65.5 29.5t-33.5 83.5q-85 342 -109 444.5t-24 127.5q0 17 10.5 22t44.5 5q82 0 116 -24t41 -83q30 -269 52 -456q8 45 17 95.5t12.5 72.5t8 47.5 t10.5 73t12 93t20 159.5q2 20 77 20q80 0 114 -20t48 -75q12 -49 53 -466z"/>
<glyph glyph-name="wcircumflex" horiz-adv-x="839" unicode="ŵ" d="M541 615q-30 0 -101 102q-104 -102 -135 -102q-12 0 -31 18t-19 25q0 10 132 156q13 15 66 15q44 0 53 -15q90 -149 90 -156q0 -6 -21.5 -24.5t-33.5 -18.5zM577 107q12 66 69 419q3 23 43 23q139 0 139 -62q0 -13 -6 -37.5t-18.5 -61t-24.5 -68.5t-31 -81t-30 -75.5 t-31 -75t-24 -58.5q-8 -18 -16 -24t-26 -6h-59q-51 0 -72 22.5t-29 64.5q-25 129 -41 340q-7 -33 -24.5 -133t-32.5 -182.5t-22 -96.5q-7 -15 -34 -15h-70q-89 0 -111 87q-110 428 -110 440q0 9 9 16t23 7q91 0 127.5 -16.5t43.5 -66.5q2 -15 6 -81.5t9.5 -151t8.5 -127.5 q54 280 79 419q4 24 53 24q73 0 112 -13.5t51 -59.5q7 -21 22 -189q10 -106 17 -181z"/>
<glyph glyph-name="Ycircumflex" horiz-adv-x="609" unicode="Ŷ" d="M449 780q-33 0 -111 82q-111 -82 -145 -82q-12 0 -31 18t-19 25q0 6 132 126q17 15 76 15q44 0 53 -15q100 -119 100 -126q0 -6 -21.5 -24.5t-33.5 -18.5zM351 0h-55q-58 0 -81 22.5t-23 73.5q0 42 11 173q-25 46 -57 117q-8 19 -29 66t-35 79t-30 69.5t-24.5 60.5 t-8.5 30q0 21 67 21q40 0 67 -7.5t42.5 -24.5t23 -32.5t15.5 -42.5q35 -118 77 -248q56 118 75.5 166t55.5 158q6 18 12.5 24t20.5 6q11 0 28 -1.5t45 -7t47 -19.5t19 -35q0 -49 -84.5 -198.5t-148.5 -216.5q-4 -129 -14 -218q-1 -15 -16 -15z"/>
<glyph glyph-name="ycircumflex" horiz-adv-x="610" unicode="ŷ" d="M433 615q-30 0 -101 102q-104 -102 -135 -102q-12 0 -31 18t-19 25q0 10 132 156q13 15 66 15q44 0 53 -15q90 -149 90 -156q0 -6 -21.5 -24.5t-33.5 -18.5zM232 458q0 -33 -9.5 -117t-9.5 -102q0 -36 18 -55.5t46 -19.5q46 0 74.5 48t35.5 131l16 187q1 20 22 20h36 q102 0 102 -83q0 -28 -30 -438q-5 -64 -29 -109.5t-62.5 -69.5t-81.5 -34.5t-95 -10.5q-100 0 -166.5 33.5t-66.5 82.5q0 36 29.5 55t72.5 19q8 0 15 -10t13.5 -22.5t30.5 -22.5t63 -10q116 0 116 188q-49 -88 -158 -88q-166 0 -166 188q0 30 21 301q2 31 28 31h32 q60 0 81.5 -22t21.5 -70z"/>
<glyph glyph-name="Ydieresis" horiz-adv-x="609" unicode="Ÿ" d="M360 838q0 36 24 57t65 21q69 0 69 -58q0 -34 -24 -56t-66 -22q-68 0 -68 58zM132 838q0 36 24 57t65 21q69 0 69 -58q0 -34 -24 -56t-66 -22q-68 0 -68 58zM351 0h-55q-58 0 -81 22.5t-23 73.5q0 42 11 173q-25 46 -57 117q-8 19 -29 66t-35 79t-30 69.5t-24.5 60.5 t-8.5 30q0 21 67 21q40 0 67 -7.5t42.5 -24.5t23 -32.5t15.5 -42.5q35 -118 77 -248q56 118 75.5 166t55.5 158q6 18 12.5 24t20.5 6q11 0 28 -1.5t45 -7t47 -19.5t19 -35q0 -49 -84.5 -198.5t-148.5 -216.5q-4 -129 -14 -218q-1 -15 -16 -15z"/>
<glyph glyph-name="Zacute" horiz-adv-x="554" unicode="Ź" d="M326 780q-19 0 -32.5 22t-13.5 33q0 15 68 72t92 57q19 0 59 -34.5t40 -49.5q0 -22 -90.5 -61t-122.5 -39zM430 0h-412q-11 0 -11 11l3 54q3 33 12 45q11 20 101 157.5t183 302.5h-228q-8 0 -9.5 2.5t-1.5 11.5l3 56q2 32 16 51t56 19h382q16 0 16 -14l-4 -54 q-1 -26 -12 -43q-234 -381 -284 -459h254q16 0 16 -14l-4 -59q-3 -34 -18.5 -50.5t-57.5 -16.5z"/>
<glyph glyph-name="zacute" horiz-adv-x="513" unicode="ź" d="M288 615q-14 0 -32.5 17.5t-18.5 30.5q0 2 15 24.5t44 64t43 62.5q10 15 23 15q25 0 68.5 -22t43.5 -38q0 -20 -81.5 -87t-104.5 -67zM385 0h-372q-11 0 -11 11l3 54q2 32 28 65t94 112.5t134 177.5h-188q-8 0 -9.5 3t-1.5 11l3 46q2 32 16 51t56 19h342q16 0 16 -14 l-4 -54q-1 -25 -20 -53q-2 -3 -39.5 -48t-94 -116.5t-102.5 -134.5h214q16 0 16 -14l-4 -49q-3 -34 -18.5 -50.5t-57.5 -16.5z"/>
<glyph glyph-name="Zdotaccent" horiz-adv-x="554" unicode="Ż" d="M241 844q0 40 29 63t78 23q82 0 82 -64q0 -38 -28.5 -62t-79.5 -24q-81 0 -81 64zM430 0h-412q-11 0 -11 11l3 54q3 33 12 45q11 20 101 157.5t183 302.5h-228q-8 0 -9.5 2.5t-1.5 11.5l3 56q2 32 16 51t56 19h382q16 0 16 -14l-4 -54q-1 -26 -12 -43 q-234 -381 -284 -459h254q16 0 16 -14l-4 -59q-3 -34 -18.5 -50.5t-57.5 -16.5z"/>
<glyph glyph-name="zdotaccent" horiz-adv-x="513" unicode="ż" d="M206 669q0 40 29 63t78 23q82 0 82 -64q0 -38 -28.5 -62t-79.5 -24q-81 0 -81 64zM385 0h-372q-11 0 -11 11l3 54q2 32 28 65t94 112.5t134 177.5h-188q-8 0 -9.5 3t-1.5 11l3 46q2 32 16 51t56 19h342q16 0 16 -14l-4 -54q-1 -25 -20 -53q-2 -3 -39.5 -48t-94 -116.5 t-102.5 -134.5h214q16 0 16 -14l-4 -49q-3 -34 -18.5 -50.5t-57.5 -16.5z"/>
<glyph glyph-name="Zcaron" horiz-adv-x="554" unicode="Ž" d="M224 964q33 0 111 -82q111 82 145 82q12 0 31 -18t19 -25q0 -6 -132 -126q-17 -15 -76 -15q-44 0 -53 15q-100 119 -100 126q0 6 21.5 24.5t33.5 18.5zM430 0h-412q-11 0 -11 11l3 54q3 33 12 45q11 20 101 157.5t183 302.5h-228q-8 0 -9.5 2.5t-1.5 11.5l3 56 q2 32 16 51t56 19h382q16 0 16 -14l-4 -54q-1 -26 -12 -43q-234 -381 -284 -459h254q16 0 16 -14l-4 -59q-3 -34 -18.5 -50.5t-57.5 -16.5z"/>
<glyph glyph-name="zcaron" horiz-adv-x="513" unicode="ž" d="M204 819q31 0 101 -92q104 92 135 92q12 0 31 -18t19 -25q0 -9 -132 -146q-13 -15 -66 -15q-44 0 -53 15q-90 138 -90 146q0 6 21.5 24.5t33.5 18.5zM385 0h-372q-11 0 -11 11l3 54q2 32 28 65t94 112.5t134 177.5h-188q-8 0 -9.5 3t-1.5 11l3 46q2 32 16 51t56 19h342 q16 0 16 -14l-4 -54q-1 -25 -20 -53q-2 -3 -39.5 -48t-94 -116.5t-102.5 -134.5h214q16 0 16 -14l-4 -49q-3 -34 -18.5 -50.5t-57.5 -16.5z"/>
<glyph glyph-name="Schwa" horiz-adv-x="677" unicode="Ə" d="M305 146q107 0 140 157q-116 -6 -227 -22q-14 -18 -14 -55q0 -38 30.5 -59t70.5 -21zM20 203q0 71 35 170q137 32 402 44q-2 150 -119 150q-35 0 -59.5 -13.5t-34 -29.5t-21.5 -29.5t-25 -13.5q-9 0 -22 3.5t-31.5 12t-31 28.5t-12.5 48q0 71 77 109.5t188 38.5 q58 0 103 -12.5t86.5 -44t64.5 -96.5t23 -159q0 -65 -11 -123.5t-37 -113.5t-66 -94.5t-102.5 -63.5t-141.5 -24q-129 0 -197 58.5t-68 154.5z"/>
<glyph glyph-name="florin" horiz-adv-x="547" unicode="ƒ" d="M342 346h-62q-24 -325 -25 -331q-12 -120 -59 -165t-123 -45q-65 0 -115 23.5t-50 66.5q0 22 14 37.5t35.5 22t36.5 8.5t28 2q1 0 12 -17.5t24 -17.5q10 0 17 8t11.5 27.5t7.5 42t5.5 61t4.5 75.5t5 94t7 108h-46q-11 0 -11 13q0 23 3 52q2 21 5.5 33t18.5 24t41 13l5 40 q14 126 70 179.5t166 53.5q96 0 141 -34t45 -91q0 -94 -120 -94q-16 0 -21 2.5t-5 11.5q-1 27 -2.5 39t-9.5 22t-25 10q-27 0 -44.5 -21.5t-24 -48.5t-11.5 -69h115q16 0 16 -14l-4 -54q-3 -34 -18.5 -50.5t-57.5 -16.5z"/>
<glyph glyph-name="uni01C4" horiz-adv-x="1175" unicode="Ǆ" d="M845 964q33 0 111 -82q111 82 145 82q12 0 31 -18t19 -25q0 -6 -132 -126q-17 -15 -76 -15q-44 0 -53 15q-100 119 -100 126q0 6 21.5 24.5t33.5 18.5zM1051 0h-412q-11 0 -11 11l3 54q3 33 12 45q11 20 101 157.5t183 302.5h-228q-8 0 -9.5 2.5t-1.5 11.5l3 56 q2 32 16 51t56 19h382q16 0 16 -14l-4 -54q-1 -25 -12 -43q-234 -381 -284 -459h254q16 0 16 -14l-4 -59q-3 -34 -18.5 -50.5t-57.5 -16.5zM278 148q171 0 171 249q0 89 -26 128.5t-96 39.5q-5 0 -69 -4q-6 -135 -27 -410q20 -3 47 -3zM92 695q1 15 17 15q51 0 127.5 4.5 t93.5 4.5q168 0 234.5 -69t66.5 -231q0 -69 -10 -128.5t-35.5 -116t-65 -96.5t-103.5 -64t-146 -24q-47 0 -74.5 1t-59 6.5t-48 16t-27.5 29t-11 46.5q0 51 19 272q14 172 22 334z"/>
<glyph glyph-name="uni01C5" horiz-adv-x="1159" unicode="ǅ" d="M850 819q31 0 101 -92q104 92 135 92q12 0 31 -18t19 -25q0 -9 -132 -146q-13 -15 -66 -15q-44 0 -53 15q-90 138 -90 146q0 6 21.5 24.5t33.5 18.5zM1031 0h-372q-11 0 -11 11l3 54q2 32 28 65t94 112.5t134 177.5h-188q-8 0 -9.5 3t-1.5 11l3 46q2 32 16 51t56 19h342 q16 0 16 -14l-4 -54q-1 -25 -20 -53q-2 -3 -39.5 -48t-94 -116.5t-102.5 -134.5h214q16 0 16 -14l-4 -49q-3 -34 -18.5 -50.5t-57.5 -16.5zM278 148q171 0 171 249q0 89 -26 128.5t-96 39.5q-5 0 -69 -4q-6 -135 -27 -410q20 -3 47 -3zM92 695q1 15 17 15q51 0 127.5 4.5 t93.5 4.5q168 0 234.5 -69t66.5 -231q0 -69 -10 -128.5t-35.5 -116t-65 -96.5t-103.5 -64t-146 -24q-47 0 -74.5 1t-59 6.5t-48 16t-27.5 29t-11 46.5q0 51 19 272q14 172 22 334z"/>
<glyph glyph-name="uni01C6" horiz-adv-x="1119" unicode="ǆ" d="M810 819q31 0 101 -92q104 92 135 92q12 0 31 -18t19 -25q0 -9 -132 -146q-13 -15 -66 -15q-44 0 -53 15q-90 138 -90 146q0 6 21.5 24.5t33.5 18.5zM991 0h-372q-11 0 -11 11l3 54q2 32 28 65t94 112.5t134 177.5h-188q-8 0 -9.5 3t-1.5 11l3 46q2 32 16 51t56 19h342 q16 0 16 -14l-4 -54q-1 -25 -20 -53q-2 -3 -39.5 -48t-94 -116.5t-102.5 -134.5h214q16 0 16 -14l-4 -49q-3 -34 -18.5 -50.5t-57.5 -16.5zM311 427q-50 0 -75 -43.5t-25 -120.5q0 -140 80 -140q45 0 73 44t28 130q0 130 -81 130zM224 -10q-85 0 -139.5 61.5t-54.5 183.5 q0 39 5.5 78.5t22 85.5t43 80.5t72.5 57.5t105 23q104 0 119 -78q3 59 8 129.5t7 99.5q1 22 5 26q3 3 16 3h39q104 0 104 -86q0 -1 -10.5 -146t-22.5 -303t-15 -185q-2 -13 -5 -16.5t-17 -3.5h-36q-48 0 -74 16.5t-26 59.5q-40 -86 -146 -86z"/>
<glyph glyph-name="uni01C7" horiz-adv-x="930" unicode="Ǉ" d="M616 146q14 0 25 6.5t19.5 21.5t14 30t10.5 41.5t7.5 45t6.5 52.5q3 28 23 343q1 15 3.5 19.5t12.5 4.5h55q33 0 54 -5.5t29.5 -16t11 -19t2.5 -20.5q0 -163 -17 -323q-6 -53 -13.5 -94t-26 -89t-44.5 -79.5t-69.5 -52.5t-100.5 -21q-80 0 -127.5 37t-47.5 91q0 47 34 75 t80 28q5 0 9 -11.5t6.5 -26t13.5 -26t29 -11.5zM345 0h-190q-104 0 -104 85q0 42 21 310t21 300q0 15 16 15h55q54 0 76.5 -20.5t22.5 -64.5q0 -3 -0.5 -9t-0.5 -9l-33 -467h180q16 0 16 -14l-4 -59q-3 -34 -18.5 -50.5t-57.5 -16.5z"/>
<glyph glyph-name="uni01C8" horiz-adv-x="713" unicode="ǈ" d="M495 668q0 40 29 63t78 23q82 0 82 -64q0 -38 -28.5 -62t-79.5 -24q-81 0 -81 64zM479 121l26 414q0 9 4 13q2 2 18 2h36q47 0 76 -21t29 -47q0 -24 -32 -453q-5 -68 -22 -114t-43.5 -69t-55 -32t-64.5 -9q-65 0 -115.5 23.5t-50.5 66.5q0 22 14 37.5t35 22t36.5 8.5 t28.5 2q3 0 6.5 -8.5t11.5 -17.5t20 -9q22 0 28 34.5t14 156.5zM345 0h-190q-104 0 -104 85q0 42 21 310t21 300q0 15 16 15h55q54 0 76.5 -20.5t22.5 -64.5q0 -3 -0.5 -9t-0.5 -9l-33 -467h180q16 0 16 -14l-4 -59q-3 -34 -18.5 -50.5t-57.5 -16.5z"/>
<glyph glyph-name="uni01C9" horiz-adv-x="587" unicode="ǉ" d="M369 668q0 40 29 63t78 23q82 0 82 -64q0 -38 -28.5 -62t-79.5 -24q-81 0 -81 64zM353 121l26 414q0 9 4 13q2 2 18 2h36q47 0 76 -21t29 -47q0 -24 -32 -453q-5 -68 -22 -114t-43.5 -69t-55 -32t-64.5 -9q-65 0 -115.5 23.5t-50.5 66.5q0 22 14 37.5t35 22t36.5 8.5 t28.5 2q3 0 6.5 -8.5t11.5 -17.5t20 -9q22 0 28 34.5t14 156.5zM157 -9q-62 0 -89 33t-27 109q0 17 5 69t16 188t21 321q1 22 5 26q3 3 16 3h39q104 0 104 -86q0 -40 -17 -239.5t-17 -237.5q0 -30 15 -43t30 -15.5t15 -6.5q0 -121 -116 -121z"/>
<glyph glyph-name="uni01CA" horiz-adv-x="1162" unicode="Ǌ" d="M847 146q14 0 25 6.5t19.5 21.5t14 30t10.5 41.5t7.5 45t6.5 52.5q3 28 23 343q1 15 3.5 19.5t12.5 4.5h55q33 0 54 -5.5t29.5 -16t11 -19t2.5 -20.5q0 -163 -17 -323q-6 -53 -13.5 -94t-26 -89t-44.5 -79.5t-69.5 -52.5t-100.5 -21q-80 0 -127.5 37t-47.5 91q0 47 34 75 t80 28q6 0 9.5 -18.5t14.5 -37.5t34 -19zM581 0h-82q-69 0 -90 42q-21 44 -190 403q1 -82 3.5 -232.5t3.5 -197.5q0 -15 -16 -15h-55q-55 0 -79.5 22t-24.5 67q0 32 20 288q20 252 22 318q0 15 16 15h80q32 0 54 -6.5t35.5 -22.5t20 -27.5t15.5 -35.5q80 -201 156 -374 q0 84 -1.5 243.5t-1.5 213.5q0 9 17 9h55q61 0 81 -23t20 -74q0 -64 -18.5 -314.5t-22.5 -282.5q0 -16 -18 -16z"/>
<glyph glyph-name="uni01CB" horiz-adv-x="974" unicode="ǋ" d="M756 668q0 40 29 63t78 23q82 0 82 -64q0 -38 -28.5 -62t-79.5 -24q-81 0 -81 64zM740 121l26 414q0 9 4 13q2 2 18 2h36q47 0 76 -21t29 -47q0 -24 -32 -453q-5 -68 -22 -114t-43.5 -69t-55 -32t-64.5 -9q-65 0 -115.5 23.5t-50.5 66.5q0 22 14 37.5t35 22t36.5 8.5 t28.5 2q2 0 12 -17.5t26 -17.5q22 0 28 34.5t14 156.5zM581 0h-82q-69 0 -90 42q-21 44 -190 403q1 -82 3.5 -232.5t3.5 -197.5q0 -15 -16 -15h-55q-55 0 -79.5 22t-24.5 67q0 32 20 288q20 252 22 318q0 15 16 15h80q32 0 54 -6.5t35.5 -22.5t20 -27.5t15.5 -35.5 q80 -201 156 -374q0 84 -1.5 243.5t-1.5 213.5q0 9 17 9h55q61 0 81 -23t20 -74q0 -64 -18.5 -314.5t-22.5 -282.5q0 -16 -18 -16z"/>
<glyph glyph-name="uni01CC" horiz-adv-x="906" unicode="ǌ" d="M688 668q0 40 29 63t78 23q82 0 82 -64q0 -38 -28.5 -62t-79.5 -24q-81 0 -81 64zM672 121l26 414q0 9 4 13q2 2 18 2h36q47 0 76 -21t29 -47q0 -24 -32 -453q-5 -68 -22 -114t-43.5 -69t-55 -32t-64.5 -9q-65 0 -115.5 23.5t-50.5 66.5q0 22 14 37.5t35 22t36.5 8.5 t28.5 2q2 0 12 -17.5t26 -17.5q22 0 28 34.5t14 156.5zM382 88q0 28 10.5 132.5t10.5 138.5q0 67 -61 67q-47 0 -73 -34t-41 -117.5t-27 -254.5q-1 -12 -5 -16t-17 -4h-36q-58 0 -80 23t-22 72q0 6 30 426q1 22 5 26q3 3 16 3h39q98 0 104 -84q31 52 70.5 73t100.5 21 q86 0 125.5 -40.5t39.5 -140.5q0 -36 -13.5 -185.5t-13.5 -162.5q0 -21 -4.5 -26t-22.5 -5h-32q-60 0 -81.5 21.5t-21.5 66.5z"/>
<glyph glyph-name="Oogonek" horiz-adv-x="712" unicode="Ǫ" d="M384 566q-49 0 -83 -26t-49 -68t-20.5 -78t-5.5 -73q0 -175 117 -175q43 0 74.5 28.5t46.5 73t21.5 84t6.5 76.5q0 158 -108 158zM405 721q143 0 208 -78t65 -227q0 -53 -7.5 -104t-30 -110t-58 -103t-98 -74.5t-144.5 -33.5q-29 -35 -29 -64q0 -20 13 -34t26 -22.5 t13 -14.5q0 -13 -30 -32t-69 -19t-59 19.5t-20 50.5q0 62 77 119q-222 31 -222 313q0 65 11 123t37.5 112.5t67.5 93t104.5 62t144.5 23.5z"/>
<glyph glyph-name="oogonek" horiz-adv-x="600" unicode="ǫ" d="M313 427q-35 0 -59.5 -18.5t-35 -49t-14.5 -56t-4 -52.5q0 -128 81 -128q33 0 57 21.5t35.5 54.5t16.5 63t5 58q0 107 -82 107zM565 326q0 -41 -6 -80.5t-24.5 -85t-47 -80t-78.5 -59.5t-114 -30q-29 -35 -29 -64q0 -20 13 -34t26 -22.5t13 -14.5q0 -13 -30 -32t-69 -19 t-59 19.5t-20 50.5q0 60 76 118q-186 25 -186 247q0 64 15 118.5t48.5 101.5t94 73.5t142.5 26.5q122 0 178.5 -59.5t56.5 -174.5z"/>
<glyph glyph-name="uni01F1" horiz-adv-x="1175" unicode="Ǳ" d="M1051 0h-412q-11 0 -11 11l3 54q3 33 12 45q11 20 101 157.5t183 302.5h-228q-8 0 -9.5 2.5t-1.5 11.5l3 56q2 32 16 51t56 19h382q16 0 16 -14l-4 -54q-1 -25 -12 -43q-234 -381 -284 -459h254q16 0 16 -14l-4 -59q-3 -34 -18.5 -50.5t-57.5 -16.5zM278 148 q171 0 171 249q0 89 -26 128.5t-96 39.5q-5 0 -69 -4q-6 -135 -27 -410q20 -3 47 -3zM92 695q1 15 17 15q51 0 127.5 4.5t93.5 4.5q168 0 234.5 -69t66.5 -231q0 -69 -10 -128.5t-35.5 -116t-65 -96.5t-103.5 -64t-146 -24q-47 0 -74.5 1t-59 6.5t-48 16t-27.5 29t-11 46.5 q0 51 19 272q14 172 22 334z"/>
<glyph glyph-name="uni01F2" horiz-adv-x="1159" unicode="ǲ" d="M1031 0h-372q-11 0 -11 11l3 54q2 32 28 65t94 112.5t134 177.5h-188q-8 0 -9.5 3t-1.5 11l3 46q2 32 16 51t56 19h342q16 0 16 -14l-4 -54q-1 -25 -20 -53q-2 -3 -39.5 -48t-94 -116.5t-102.5 -134.5h214q16 0 16 -14l-4 -49q-3 -34 -18.5 -50.5t-57.5 -16.5zM278 148 q171 0 171 249q0 89 -26 128.5t-96 39.5q-5 0 -69 -4q-6 -135 -27 -410q20 -3 47 -3zM92 695q1 15 17 15q51 0 127.5 4.5t93.5 4.5q168 0 234.5 -69t66.5 -231q0 -69 -10 -128.5t-35.5 -116t-65 -96.5t-103.5 -64t-146 -24q-47 0 -74.5 1t-59 6.5t-48 16t-27.5 29t-11 46.5 q0 51 19 272q14 172 22 334z"/>
<glyph glyph-name="uni01F3" horiz-adv-x="1119" unicode="ǳ" d="M991 0h-372q-11 0 -11 11l3 54q2 32 28 65t94 112.5t134 177.5h-188q-8 0 -9.5 3t-1.5 11l3 46q2 32 16 51t56 19h342q16 0 16 -14l-4 -54q-1 -25 -20 -53q-2 -3 -39.5 -48t-94 -116.5t-102.5 -134.5h214q16 0 16 -14l-4 -49q-3 -34 -18.5 -50.5t-57.5 -16.5zM311 427 q-50 0 -75 -43.5t-25 -120.5q0 -140 80 -140q45 0 73 44t28 130q0 130 -81 130zM224 -10q-85 0 -139.5 61.5t-54.5 183.5q0 39 5.5 78.5t22 85.5t43 80.5t72.5 57.5t105 23q104 0 119 -78q3 59 8 129.5t7 99.5q1 22 5 26q3 3 16 3h39q104 0 104 -86q0 -1 -10.5 -146 t-22.5 -303t-15 -185q-2 -13 -5 -16.5t-17 -3.5h-36q-48 0 -74 16.5t-26 59.5q-40 -86 -146 -86z"/>
<glyph glyph-name="Aringacute" d="M319 563l-73 -264h115zM271 710h95q45 0 65.5 -28.5t33.5 -82.5q134 -540 134 -575q0 -24 -27 -24h-51q-42 0 -68 9.5t-40 33t-19 46t-10 65.5h-174l-33 -138q-5 -16 -23 -16h-53q-37 0 -66 16.5t-29 49.5q0 61 93.5 308t132.5 317q8 14 14 16.5t25 2.5zM337 890 q-20 0 -31.5 -11t-11.5 -26q0 -34 37 -34q23 0 32.5 13t9.5 29q0 29 -36 29zM341 942q14 0 20 -1q33 15 47 15q18 0 58.5 -34.5t40.5 -49.5q0 -18 -82 -54q-28 -48 -98 -48q-19 0 -34 3q-41 -11 -59 -11q-19 0 -32.5 22.5t-13.5 32.5q0 9 42 41q4 35 32 59.5t79 24.5z" unicode="Ǻ"/>
<glyph glyph-name="aringacute" horiz-adv-x="563" unicode="ǻ" d="M299 760q-14 0 -32.5 17.5t-18.5 30.5q0 2 15 24.5t44 64t43 62.5q10 15 23 15q25 0 68.5 -22t43.5 -38q0 -20 -81.5 -87t-104.5 -67zM308 687q-13 0 -19.5 -8.5t-6.5 -20.5q0 -25 22 -25q26 0 26 31q0 23 -22 23zM312 736q41 0 63.5 -18t22.5 -47q0 -31 -23 -58.5 t-75 -27.5q-43 0 -64 19.5t-21 48.5q0 33 24.5 58t72.5 25zM322 237q-59 0 -99 -18t-40 -55q0 -41 46 -41q35 0 62 30t31 84zM11 123q0 90 82 141t238 55q2 28 2 37q0 35 -13.5 52.5t-48.5 17.5q-27 0 -42.5 -11.5t-21.5 -25.5t-13 -44q-4 -14 -31 -14q-102 0 -102 77 q0 66 59.5 109t169.5 43q211 0 211 -176q0 -15 -8.5 -99t-8.5 -99q0 -29 15 -41t29.5 -15t14.5 -10q0 -52 -28.5 -91t-91.5 -39q-88 0 -104 87q-61 -87 -163 -87q-65 0 -105 32t-40 101z"/>
<glyph glyph-name="AEacute" horiz-adv-x="819" unicode="Ǽ" d="M422 780q-19 0 -32.5 22t-13.5 33q0 15 68 72t92 57q19 0 59 -34.5t40 -49.5q0 -22 -90.5 -61t-122.5 -39zM357 563l-106 -264h106v264zM711 0h-225q-33 0 -55 7.5t-34 18t-18 33.5t-7 41t-1 54h-174l-50 -138q-7 -16 -25 -16h-53q-35 0 -60.5 14.5t-25.5 43.5 q0 47 126.5 304t176.5 329q13 19 41 19h392q16 0 16 -14l-6 -59q-3 -34 -19 -50.5t-58 -16.5h-142q2 -14 17 -141h196q16 0 16 -14l-5 -59q-3 -33 -20 -50t-58 -17h-111l17 -149h216q16 0 16 -14l-6 -59q-3 -34 -19 -50.5t-58 -16.5z"/>
<glyph glyph-name="aeacute" horiz-adv-x="827" unicode="ǽ" d="M452 615q-14 0 -32.5 17.5t-18.5 30.5q0 2 15 24.5t44 64t43 62.5q10 15 23 15q25 0 68.5 -22t43.5 -38q0 -20 -81.5 -87t-104.5 -67zM322 237q-59 0 -99 -18t-40 -55q0 -41 50 -41q86 0 89 114zM586 427q-72 0 -88 -130q63 1 101 21.5t38 56.5q0 22 -13.5 37t-37.5 15z M11 123q0 90 82.5 141t238.5 55q0 12 0.5 25.5t0.5 15.5q0 66 -59 66q-30 0 -47 -11.5t-21.5 -26t-14.5 -26t-29 -11.5q-101 0 -101 74q0 60 60 97.5t156 37.5q120 0 159 -72q76 72 191 72q92 0 136.5 -42t44.5 -109q0 -38 -15 -69t-37 -50.5t-54 -34t-59.5 -21.5t-61 -11 t-51 -5t-35.5 -1q10 -102 95 -102q24 0 40.5 8.5t23.5 19t15.5 19t17.5 8.5q11 0 26 -4.5t32.5 -22t17.5 -44.5q0 -37 -31.5 -62.5t-74 -36t-90.5 -10.5q-134 0 -199 81q-31 -35 -87.5 -58t-118.5 -23q-70 0 -110.5 32.5t-40.5 100.5z"/>
<glyph glyph-name="Oslashacute" horiz-adv-x="711" unicode="Ǿ" d="M355 780q-19 0 -32.5 22t-13.5 33q0 15 68 72t92 57q19 0 59 -34.5t40 -49.5q0 -22 -90.5 -61t-122.5 -39zM384 566q-49 0 -83 -26t-49 -68t-20.5 -78t-5.5 -73q0 -27 3 -49q88 129 198 285q-18 9 -43 9zM489 453q-56 -83 -202 -294q23 -13 56 -13q43 0 74.5 28.5 t46.5 73t21.5 84t6.5 76.5q0 24 -3 45zM405 721q71 0 123 -20l35 49q21 30 66 30q20 0 29.5 -10t9.5 -22q0 -21 -54 -107q64 -77 64 -225q0 -37 -4 -74t-14.5 -80t-27 -81t-44 -73.5t-63.5 -61t-87.5 -41t-113.5 -15.5q-79 0 -137 25l-38 -55q-18 -27 -66 -27q-36 0 -36 31 q0 29 54 117q-61 77 -61 226q0 65 11 123t37.5 112.5t67.5 93t104.5 62t144.5 23.5z"/>
<glyph glyph-name="oslashacute" horiz-adv-x="598" unicode="ǿ" d="M302 615q-14 0 -32.5 17.5t-18.5 30.5q0 2 15 24.5t44 64t43 62.5q10 15 23 15q25 0 68.5 -22t43.5 -38q0 -20 -81.5 -87t-104.5 -67zM312 432q-40 0 -67.5 -19t-39.5 -50.5t-16.5 -57.5t-4.5 -54q0 -20 1 -29q62 92 146 209q-6 1 -19 1zM407 343q-85 -124 -153 -222 q12 -3 26 -3q37 0 64.5 22t40.5 56t18.5 65t5.5 59q0 9 -2 23zM265 -10q-54 0 -93 12l-30 -43q-19 -27 -66 -27q-36 0 -36 31q0 30 40 98q-51 60 -51 179q0 64 15 118.5t48.5 101.5t94 73.5t142.5 26.5q51 0 87 -10l39 54q21 30 66 30q20 0 29.5 -10t9.5 -22q0 -23 -51 -104 q55 -58 55 -172q0 -43 -6.5 -84t-26.5 -88.5t-52 -82t-87 -58t-127 -23.5z"/>
<glyph glyph-name="uni0218" horiz-adv-x="541" unicode="Ș" d="M245 -131q-40 0 -40 39q0 52 59 52q53 0 53 -56q0 -42 -21 -73t-53 -31q-30 0 -30 32l16 14q16 13 16 23zM326 720q91 0 138 -40t47 -108q0 -55 -31 -85t-89 -30q-18 0 -23 3.5t-5 14.5q0 93 -64 93q-33 0 -57.5 -20t-24.5 -50q0 -22 15.5 -39t40 -28.5t54 -24t59.5 -29 t54.5 -38.5t40 -57.5t15.5 -81.5q0 -93 -59.5 -151.5t-171.5 -58.5q-93 0 -163.5 37t-70.5 73q0 67 8 95.5t27 28.5q14 0 38 -19.5t59 -39t76 -19.5q75 0 75 51q0 23 -19 40t-48 27t-62.5 26.5t-62.5 37t-48 60.5t-19 95q0 62 24 109.5t64 74.5t86 40t97 13z"/>
<glyph glyph-name="uni0219" horiz-adv-x="470" unicode="ș" d="M186 -131q-40 0 -40 39q0 52 59 52q53 0 53 -56q0 -42 -21 -73t-53 -31q-30 0 -30 32l16 14q16 13 16 23zM274 560q81 0 123 -32.5t42 -86.5q0 -44 -27.5 -67t-79.5 -23q-14 0 -19 3t-5 11q-1 18 -3 29.5t-16 24.5t-39 13q-28 0 -45 -13.5t-17 -33.5q0 -22 24.5 -38 t59.5 -28.5t70 -29t59.5 -51t24.5 -84.5q0 -74 -53 -119t-151 -45q-73 0 -142.5 21t-69.5 63q0 23 16 49.5t42 26.5q10 0 45.5 -18.5t86.5 -18.5q64 0 64 33q0 15 -12 26.5t-31.5 20t-42.5 17t-46.5 21.5t-43 30.5t-31.5 46.5t-12 67q0 49 20 86t53.5 58t72.5 31t83 10z"/>
<glyph glyph-name="uni021A" horiz-adv-x="544" unicode="Ț" d="M233 -131q-40 0 -40 39q0 52 59 52q53 0 53 -56q0 -42 -21 -73t-53 -31q-30 0 -30 32l16 14q16 13 16 23zM483 570h-108l-38 -555q-1 -15 -11 -15h-55q-104 0 -104 85q0 20 34 485h-160q-11 0 -11 14l3 56q4 70 67 70h447q16 0 16 -14l-4 -59q-3 -34 -18.5 -50.5 t-57.5 -16.5z"/>
<glyph glyph-name="uni021B" horiz-adv-x="399" unicode="ț" d="M183 -131q-40 0 -40 39q0 52 59 52q53 0 53 -56q0 -42 -21 -73t-53 -31q-30 0 -30 32l16 14q16 13 16 23zM309 415h-53q-19 -211 -19 -244q0 -25 6 -34t20 -9q17 0 34 13t25 13q19 0 19 -45q0 -119 -133 -119q-141 0 -141 136q0 18 2.5 47t8.5 97t12 145h-53 q-11 0 -11 14l3 51q2 32 16 51t56 19q4 11 12 33.5t14.5 39.5t14 35.5t14.5 28.5t12 10h29q74 0 74 -88q0 -20 -3 -59h105q16 0 16 -14l-4 -54q-3 -34 -18.5 -50.5t-57.5 -16.5z"/>
<glyph glyph-name="dotlessj" horiz-adv-x="279" unicode="ȷ" d="M45 121l26 414q0 9 4 13q2 2 18 2h36q47 0 76 -21t29 -47q0 -24 -32 -453q-5 -68 -22 -114t-43.5 -69t-55 -32t-64.5 -9q-65 0 -115.5 23.5t-50.5 66.5q0 22 14 37.5t35 22t36.5 8.5t28.5 2q3 0 6.5 -8.5t11.5 -17.5t20 -9q22 0 28 34.5t14 156.5z"/>
<glyph glyph-name="schwa" horiz-adv-x="533" unicode="ə" d="M225 123q73 0 96 119q-77 -4 -139 -17q-11 -15 -11 -45q0 -26 14.5 -41.5t39.5 -15.5zM14 141q0 44 15 87t32 60q96 27 267 34q-2 46 -24 79.5t-72 33.5q-21 0 -36.5 -8.5t-21.5 -19t-13.5 -19t-15.5 -8.5q-11 0 -26 4.5t-32.5 22t-17.5 44.5q0 37 30 62.5t70.5 36 t85.5 10.5q47 0 87.5 -11.5t77 -37t58 -73t21.5 -113.5q0 -36 -5.5 -74t-25 -87t-50.5 -86t-87 -62.5t-130 -25.5q-98 0 -142.5 41.5t-44.5 109.5z"/>
<glyph glyph-name="apostrophe" horiz-adv-x="453" unicode="ʼ" d="M231 610q-26 0 -39 19t-13 45q0 37 26.5 56.5t63.5 19.5q65 0 65 -79q0 -71 -38 -125.5t-91 -54.5q-38 0 -38 42q0 3 32 30t32 47z"/>
<glyph glyph-name="circumflex" horiz-adv-x="361" unicode="ˆ" d="M296 615q-30 0 -101 102q-104 -102 -135 -102q-12 0 -31 18t-19 25q0 10 132 156q13 15 66 15q44 0 53 -15q90 -149 90 -156q0 -6 -21.5 -24.5t-33.5 -18.5z"/>
<glyph glyph-name="caron" horiz-adv-x="361" unicode="ˇ" d="M65 819q31 0 101 -92q104 92 135 92q12 0 31 -18t19 -25q0 -9 -132 -146q-13 -15 -66 -15q-44 0 -53 15q-90 138 -90 146q0 6 21.5 24.5t33.5 18.5z"/>
<glyph glyph-name="breve" horiz-adv-x="349" unicode="˘" d="M159 605q-74 0 -111.5 30t-37.5 64q0 24 19 37.5t47 13.5q21 0 32 -9t14 -20.5t14 -20.5t32 -9q30 0 60 29.5t68 29.5q43 0 43 -31q0 -40 -49 -77t-131 -37z"/>
<glyph glyph-name="dotaccent" horiz-adv-x="189" unicode="˙" d="M0 669q0 40 29 63t78 23q82 0 82 -64q0 -38 -28.5 -62t-79.5 -24q-81 0 -81 64z"/>
<glyph glyph-name="ring" horiz-adv-x="203" unicode="˚" d="M103 707q-13 0 -19.5 -8.5t-6.5 -20.5q0 -25 22 -25q26 0 26 31q0 23 -22 23zM107 756q41 0 63.5 -18t22.5 -47q0 -31 -23 -58.5t-75 -27.5q-43 0 -64 19.5t-21 48.5q0 33 25 58t72 25z"/>
<glyph glyph-name="ogonek" horiz-adv-x="202" unicode="˛" d="M143 30l49 -11q-56 -53 -56 -92q0 -20 13 -34t26 -22.5t13 -14.5q0 -13 -30 -32t-69 -19t-59 19.5t-20 50.5q0 79 133 155z"/>
<glyph glyph-name="tilde" horiz-adv-x="450" unicode="˜" d="M313 720q25 0 46 15t36 30t25 15q20 0 20 -39q0 -53 -37 -94.5t-106 -41.5q-40 0 -70.5 16.5t-53.5 32.5t-45 16q-24 0 -42.5 -16t-32 -32.5t-23.5 -16.5q-20 0 -20 40q0 52 33.5 93.5t101.5 41.5q49 0 96 -30t72 -30z"/>
<glyph glyph-name="hungarumlaut" horiz-adv-x="514" unicode="˝" d="M318 615q-14 0 -32.5 17.5t-18.5 30.5q0 2 15 24.5t44 64t43 62.5q10 15 23 15q25 0 68.5 -22t43.5 -38q0 -20 -81.5 -87t-104.5 -67zM61 615q-14 0 -32.5 17.5t-18.5 30.5q0 2 15 24.5t44 64t43 62.5q10 15 23 15q25 0 68.5 -22t43.5 -38q0 -20 -81.5 -87t-104.5 -67z "/>
<glyph glyph-name="uni03BC" horiz-adv-x="604" unicode="μ" d="M236 465q0 -29 -10.5 -138t-10.5 -128q0 -34 17.5 -54.5t45.5 -20.5q41 0 67 43t32 117l20 246q1 12 5 16t17 4h36q58 0 80 -23t22 -72q0 -6 -30 -426q-1 -21 -4.5 -25t-17.5 -4h-38q-100 0 -104 79q-46 -89 -115 -89q-34 0 -59 23v-178q0 -12 -4.5 -16t-17.5 -4h-36 q-58 0 -80 23t-22 71q0 18 3 54.5t8 97.5t8 117q12 229 25 341q2 21 7 26t21 5h32q59 0 81 -21t22 -64z"/>
<glyph glyph-name="Ddotbelow" horiz-adv-x="666" unicode="Ḍ" d="M177 -130q0 35 24.5 55.5t65.5 20.5q67 0 67 -57q0 -33 -24 -54t-67 -21q-66 0 -66 56zM278 148q171 0 171 249q0 89 -26 128.5t-96 39.5q-5 0 -69 -4q-6 -135 -27 -410q20 -3 47 -3zM92 695q1 15 17 15q51 0 127.5 4.5t93.5 4.5q168 0 234.5 -69t66.5 -231 q0 -69 -10 -128.5t-35.5 -116t-65 -96.5t-103.5 -64t-146 -24q-47 0 -74.5 1t-59 6.5t-48 16t-27.5 29t-11 46.5q0 51 19 272q14 172 22 334z"/>
<glyph glyph-name="ddotbelow" horiz-adv-x="608" unicode="ḍ" d="M152 -130q0 35 24.5 55.5t65.5 20.5q67 0 67 -57q0 -33 -24 -54t-67 -21q-66 0 -66 56zM311 427q-50 0 -75 -43.5t-25 -120.5q0 -140 80 -140q45 0 73 44t28 130q0 130 -81 130zM224 -10q-85 0 -139.5 61.5t-54.5 183.5q0 39 5.5 78.5t22 85.5t43 80.5t72.5 57.5t105 23 q104 0 119 -78q3 59 8 129.5t7 99.5q1 22 5 26q3 3 16 3h39q104 0 104 -86q0 -1 -10.5 -146t-22.5 -303t-15 -185q-2 -13 -5 -16.5t-17 -3.5h-36q-48 0 -74 16.5t-26 59.5q-40 -86 -146 -86z"/>
<glyph glyph-name="Hdotbelow" horiz-adv-x="674" unicode="Ḥ" d="M235 -130q0 35 24.5 55.5t65.5 20.5q67 0 67 -57q0 -33 -24 -54t-67 -21q-66 0 -66 56zM570 0h-55q-104 0 -104 85q0 31 13 204h-178l-20 -274q-1 -15 -16 -15h-55q-104 0 -104 85q0 42 21 310t21 300q0 15 16 15h55q59 0 81 -24.5t22 -78.5q0 -8 -11 -173h179 q18 236 18 261q0 15 16 15h55q59 0 81 -24.5t22 -78.5q0 -19 -19 -291t-22 -301q-1 -15 -16 -15z"/>
<glyph glyph-name="hdotbelow" horiz-adv-x="608" unicode="ḥ" d="M199 -130q0 35 24.5 55.5t65.5 20.5q67 0 67 -57q0 -33 -24 -54t-67 -21q-66 0 -66 56zM373 124q19 209 19 235q0 67 -61 67q-47 0 -77 -45t-35 -120q-1 -21 -6 -80t-9 -106t-4 -55q0 -12 -4.5 -16t-17.5 -4h-36q-58 0 -80 23t-22 72q0 22 5.5 83t17 205t21.5 328 q1 22 5 26q3 3 16 3h39q104 0 104 -86q0 -31 -12 -182q29 49 65.5 68.5t93.5 19.5q86 0 125.5 -40.5t39.5 -140.5q0 -18 -5 -77.5t-12 -140.5t-10 -130q-1 -22 -5.5 -26.5t-21.5 -4.5h-32q-60 0 -81.5 21.5t-21.5 66.5q0 14 2 36z"/>
<glyph glyph-name="Ndotaccent" horiz-adv-x="688" unicode="Ṅ" d="M306 844q0 40 29 63t78 23q82 0 82 -64q0 -38 -28.5 -62t-79.5 -24q-81 0 -81 64zM581 0h-82q-69 0 -90 42q-21 44 -190 403q1 -82 3.5 -232.5t3.5 -197.5q0 -15 -16 -15h-55q-55 0 -79.5 22t-24.5 67q0 32 20 288q20 252 22 318q0 15 16 15h80q32 0 54 -6.5t35.5 -22.5 t20 -27.5t15.5 -35.5q80 -201 156 -374q0 84 -1.5 243.5t-1.5 213.5q0 9 17 9h55q61 0 81 -23t20 -74q0 -64 -18.5 -314.5t-22.5 -282.5q0 -16 -18 -16z"/>
<glyph glyph-name="ndotaccent" d="M259 669q0 40 29 63t78 23q82 0 82 -64q0 -38 -28.5 -62t-79.5 -24q-81 0 -81 64zM382 88q0 28 10.5 132.5t10.5 138.5q0 67 -61 67q-47 0 -73 -34t-41 -117.5t-27 -254.5q-1 -12 -5 -16t-17 -4h-36q-58 0 -80 23t-22 72q0 6 30 426q1 22 5 26q3 3 16 3h39q98 0 104 -84 q31 52 70.5 73t100.5 21q86 0 125.5 -40.5t39.5 -140.5q0 -36 -13.5 -185.5t-13.5 -162.5q0 -21 -4.5 -26t-22.5 -5h-32q-60 0 -81.5 21.5t-21.5 66.5z" unicode="ṅ"/>
<glyph glyph-name="Rdotbelow" horiz-adv-x="617" unicode="Ṛ" d="M200 -130q0 35 24.5 55.5t65.5 20.5q67 0 67 -57q0 -33 -24 -54t-67 -21q-66 0 -66 56zM317 570q-22 0 -59 -5q-3 -70 -11 -187q35 -8 61 -8q30 0 51 11.5t30.5 30.5t13.5 36.5t4 36.5q0 85 -90 85zM205 0h-50q-55 0 -79.5 22t-24.5 67q0 32 20 288q3 46 17 263 q3 46 6 58t13 12q46 0 126 5t104 5q240 0 240 -223q0 -171 -130 -232l84 -120q47 -68 47 -80q0 -19 -37 -47t-89 -28q-30 0 -54.5 19.5t-43 57.5t-31.5 77.5t-26 95.5q-36 2 -59 7q-10 -150 -17 -232q-1 -15 -16 -15z"/>
<glyph glyph-name="rdotbelow" horiz-adv-x="479" unicode="ṛ" d="M37 -130q0 35 24.5 55.5t65.5 20.5q67 0 67 -57q0 -33 -24 -54t-67 -21q-66 0 -66 56zM364 311q-45 0 -45 13q0 9 1 24t1 23q0 50 -30 50q-59 0 -70 -146q-2 -32 -7 -95t-8.5 -106.5t-3.5 -53.5q0 -20 -22 -20h-36q-58 0 -80 23t-22 72q0 6 30 426q2 29 21 29h39 q94 0 103 -76q21 43 59.5 64.5t75.5 21.5q43 0 76 -30t33 -86t-32 -94.5t-83 -38.5z"/>
<glyph glyph-name="Sdotbelow" horiz-adv-x="541" unicode="Ṣ" d="M172 -130q0 35 24.5 55.5t65.5 20.5q67 0 67 -57q0 -33 -24 -54t-67 -21q-66 0 -66 56zM326 720q91 0 138 -40t47 -108q0 -55 -31 -85t-89 -30q-18 0 -23 3.5t-5 14.5q0 93 -64 93q-33 0 -57.5 -20t-24.5 -50q0 -22 15.5 -39t40 -28.5t54 -24t59.5 -29t54.5 -38.5 t40 -57.5t15.5 -81.5q0 -93 -59.5 -151.5t-171.5 -58.5q-93 0 -163.5 37t-70.5 73q0 67 8 95.5t27 28.5q14 0 38 -19.5t59 -39t76 -19.5q75 0 75 51q0 23 -19 40t-48 27t-62.5 26.5t-62.5 37t-48 60.5t-19 95q0 62 24 109.5t64 74.5t86 40t97 13z"/>
<glyph glyph-name="sdotbelow" horiz-adv-x="470" unicode="ṣ" d="M113 -130q0 35 24.5 55.5t65.5 20.5q67 0 67 -57q0 -33 -24 -54t-67 -21q-66 0 -66 56zM274 560q81 0 123 -32.5t42 -86.5q0 -44 -27.5 -67t-79.5 -23q-14 0 -19 3t-5 11q-1 18 -3 29.5t-16 24.5t-39 13q-28 0 -45 -13.5t-17 -33.5q0 -22 24.5 -38t59.5 -28.5t70 -29 t59.5 -51t24.5 -84.5q0 -74 -53 -119t-151 -45q-73 0 -142.5 21t-69.5 63q0 23 16 49.5t42 26.5q10 0 45.5 -18.5t86.5 -18.5q64 0 64 33q0 15 -12 26.5t-31.5 20t-42.5 17t-46.5 21.5t-43 30.5t-31.5 46.5t-12 67q0 49 20 86t53.5 58t72.5 31t83 10z"/>
<glyph glyph-name="Tdotbelow" horiz-adv-x="544" unicode="Ṭ" d="M160 -130q0 35 24.5 55.5t65.5 20.5q67 0 67 -57q0 -33 -24 -54t-67 -21q-66 0 -66 56zM483 570h-108l-38 -555q-1 -15 -11 -15h-55q-104 0 -104 85q0 20 34 485h-160q-11 0 -11 14l3 56q4 70 67 70h447q16 0 16 -14l-4 -59q-3 -34 -18.5 -50.5t-57.5 -16.5z"/>
<glyph glyph-name="tdotbelow" horiz-adv-x="399" unicode="ṭ" d="M111 -130q0 35 24.5 55.5t65.5 20.5q67 0 67 -57q0 -33 -24 -54t-67 -21q-66 0 -66 56zM309 415h-53q-19 -211 -19 -244q0 -25 6 -34t20 -9q17 0 34 13t25 13q19 0 19 -45q0 -119 -133 -119q-141 0 -141 136q0 18 2.5 47t8.5 97t12 145h-53q-11 0 -11 14l3 51q2 32 16 51 t56 19q4 11 12 33.5t14.5 39.5t14 35.5t14.5 28.5t12 10h29q74 0 74 -88q0 -20 -3 -59h105q16 0 16 -14l-4 -54q-3 -34 -18.5 -50.5t-57.5 -16.5z"/>
<glyph glyph-name="Wgrave" horiz-adv-x="946" unicode="Ẁ" d="M531 843q0 -18 -13 -40.5t-28 -22.5q-43 0 -112 29.5t-69 46.5q0 24 31.5 64t48.5 40q14 0 78 -53.5t64 -63.5zM668 149q36 184 91 532q3 19 10.5 24.5t34.5 5.5q17 0 34 -2t42 -8.5t40.5 -23.5t15.5 -43q0 -59 -72.5 -318.5t-93.5 -296.5q-11 -19 -39 -19h-95 q-47 0 -70.5 32.5t-28.5 80.5l-50 449q-67 -498 -89 -543q-10 -19 -39 -19h-95q-45 0 -65.5 29.5t-33.5 83.5q-85 342 -109 444.5t-24 127.5q0 17 10.5 22t44.5 5q82 0 116 -24t41 -83q30 -269 52 -456q8 45 17 95.5t12.5 72.5t8 47.5t10.5 73t12 93t20 159.5q2 20 77 20 q80 0 114 -20t48 -75q12 -49 53 -466z"/>
<glyph glyph-name="wgrave" horiz-adv-x="839" unicode="ẁ" d="M428 615q-23 0 -78.5 65t-55.5 88q0 17 42 39t68 22q15 0 21 -15q11 -28 27 -66t24.5 -59.5t8.5 -25.5q0 -12 -22 -30t-35 -18zM577 107q12 66 69 419q3 23 43 23q139 0 139 -62q0 -13 -6 -37.5t-18.5 -61t-24.5 -68.5t-31 -81t-30 -75.5t-31 -75t-24 -58.5 q-8 -18 -16 -24t-26 -6h-59q-51 0 -72 22.5t-29 64.5q-25 129 -41 340q-7 -33 -24.5 -133t-32.5 -182.5t-22 -96.5q-7 -15 -34 -15h-70q-89 0 -111 87q-110 428 -110 440q0 9 9 16t23 7q91 0 127.5 -16.5t43.5 -66.5q2 -15 6 -81.5t9.5 -151t8.5 -127.5q54 280 79 419 q4 24 53 24q73 0 112 -13.5t51 -59.5q7 -21 22 -189q10 -106 17 -181z"/>
<glyph glyph-name="Wacute" horiz-adv-x="946" unicode="Ẃ" d="M510 780q-19 0 -32.5 22t-13.5 33q0 15 68 72t92 57q19 0 59 -34.5t40 -49.5q0 -22 -90.5 -61t-122.5 -39zM668 149q36 184 91 532q3 19 10.5 24.5t34.5 5.5q17 0 34 -2t42 -8.5t40.5 -23.5t15.5 -43q0 -59 -72.5 -318.5t-93.5 -296.5q-11 -19 -39 -19h-95 q-47 0 -70.5 32.5t-28.5 80.5l-50 449q-67 -498 -89 -543q-10 -19 -39 -19h-95q-45 0 -65.5 29.5t-33.5 83.5q-85 342 -109 444.5t-24 127.5q0 17 10.5 22t44.5 5q82 0 116 -24t41 -83q30 -269 52 -456q8 45 17 95.5t12.5 72.5t8 47.5t10.5 73t12 93t20 159.5q2 20 77 20 q80 0 114 -20t48 -75q12 -49 53 -466z"/>
<glyph glyph-name="wacute" horiz-adv-x="839" unicode="ẃ" d="M428 615q-14 0 -32.5 17.5t-18.5 30.5q0 2 15 24.5t44 64t43 62.5q10 15 23 15q25 0 68.5 -22t43.5 -38q0 -20 -81.5 -87t-104.5 -67zM577 107q12 66 69 419q3 23 43 23q139 0 139 -62q0 -13 -6 -37.5t-18.5 -61t-24.5 -68.5t-31 -81t-30 -75.5t-31 -75t-24 -58.5 q-8 -18 -16 -24t-26 -6h-59q-51 0 -72 22.5t-29 64.5q-25 129 -41 340q-7 -33 -24.5 -133t-32.5 -182.5t-22 -96.5q-7 -15 -34 -15h-70q-89 0 -111 87q-110 428 -110 440q0 9 9 16t23 7q91 0 127.5 -16.5t43.5 -66.5q2 -15 6 -81.5t9.5 -151t8.5 -127.5q54 280 79 419 q4 24 53 24q73 0 112 -13.5t51 -59.5q7 -21 22 -189q10 -106 17 -181z"/>
<glyph glyph-name="Wdieresis" horiz-adv-x="946" unicode="Ẅ" d="M551 838q0 36 24 57t65 21q69 0 69 -58q0 -34 -24 -56t-66 -22q-68 0 -68 58zM323 838q0 36 24 57t65 21q69 0 69 -58q0 -34 -24 -56t-66 -22q-68 0 -68 58zM668 149q36 184 91 532q3 19 10.5 24.5t34.5 5.5q17 0 34 -2t42 -8.5t40.5 -23.5t15.5 -43q0 -59 -72.5 -318.5 t-93.5 -296.5q-11 -19 -39 -19h-95q-47 0 -70.5 32.5t-28.5 80.5l-50 449q-67 -498 -89 -543q-10 -19 -39 -19h-95q-45 0 -65.5 29.5t-33.5 83.5q-85 342 -109 444.5t-24 127.5q0 17 10.5 22t44.5 5q82 0 116 -24t41 -83q30 -269 52 -456q8 45 17 95.5t12.5 72.5t8 47.5 t10.5 73t12 93t20 159.5q2 20 77 20q80 0 114 -20t48 -75q12 -49 53 -466z"/>
<glyph glyph-name="wdieresis" horiz-adv-x="839" unicode="ẅ" d="M473 677q0 36 24 57t65 21q69 0 69 -58q0 -34 -24 -56t-66 -22q-68 0 -68 58zM245 677q0 36 24 57t65 21q69 0 69 -58q0 -34 -24 -56t-66 -22q-68 0 -68 58zM577 107q12 66 69 419q3 23 43 23q139 0 139 -62q0 -13 -6 -37.5t-18.5 -61t-24.5 -68.5t-31 -81t-30 -75.5 t-31 -75t-24 -58.5q-8 -18 -16 -24t-26 -6h-59q-51 0 -72 22.5t-29 64.5q-25 129 -41 340q-7 -33 -24.5 -133t-32.5 -182.5t-22 -96.5q-7 -15 -34 -15h-70q-89 0 -111 87q-110 428 -110 440q0 9 9 16t23 7q91 0 127.5 -16.5t43.5 -66.5q2 -15 6 -81.5t9.5 -151t8.5 -127.5 q54 280 79 419q4 24 53 24q73 0 112 -13.5t51 -59.5q7 -21 22 -189q10 -106 17 -181z"/>
<glyph glyph-name="Zdotbelow" horiz-adv-x="554" unicode="Ẓ" d="M145 -130q0 35 24.5 55.5t65.5 20.5q67 0 67 -57q0 -33 -24 -54t-67 -21q-66 0 -66 56zM430 0h-412q-11 0 -11 11l3 54q3 33 12 45q11 20 101 157.5t183 302.5h-228q-8 0 -9.5 2.5t-1.5 11.5l3 56q2 32 16 51t56 19h382q16 0 16 -14l-4 -54q-1 -26 -12 -43 q-234 -381 -284 -459h254q16 0 16 -14l-4 -59q-3 -34 -18.5 -50.5t-57.5 -16.5z"/>
<glyph glyph-name="zdotbelow" horiz-adv-x="513" unicode="ẓ" d="M129 -130q0 35 24.5 55.5t65.5 20.5q67 0 67 -57q0 -33 -24 -54t-67 -21q-66 0 -66 56zM385 0h-372q-11 0 -11 11l3 54q2 32 28 65t94 112.5t134 177.5h-188q-8 0 -9.5 3t-1.5 11l3 46q2 32 16 51t56 19h342q16 0 16 -14l-4 -54q-1 -25 -20 -53q-2 -3 -39.5 -48 t-94 -116.5t-102.5 -134.5h214q16 0 16 -14l-4 -49q-3 -34 -18.5 -50.5t-57.5 -16.5z"/>
<glyph glyph-name="Edotbelow" horiz-adv-x="501" unicode="Ẹ" d="M168 -130q0 35 24.5 55.5t65.5 20.5q67 0 67 -57q0 -33 -24 -54t-67 -21q-66 0 -66 56zM385 0h-230q-104 0 -104 85q0 42 21 310t21 300q0 15 16 15h352q16 0 16 -14l-4 -59q-3 -34 -18.5 -50.5t-57.5 -16.5h-138l-10 -141h142q16 0 16 -14l-4 -59q-3 -34 -18.5 -50.5 t-57.5 -16.5h-87l-11 -149h220q16 0 16 -14l-4 -59q-3 -34 -18.5 -50.5t-57.5 -16.5z"/>
<glyph glyph-name="edotbelow" horiz-adv-x="532" unicode="ẹ" d="M158 -130q0 35 24.5 55.5t65.5 20.5q67 0 67 -57q0 -33 -24 -54t-67 -21q-66 0 -66 56zM291 427q-72 0 -88 -130q63 1 101 21.5t38 56.5q0 22 -13.5 37t-37.5 15zM272 -10q-47 0 -87.5 11.5t-77 37t-58 73t-21.5 112.5q0 36 5.5 74t25 87t50 86t87 63t129.5 26 q98 0 143 -41.5t45 -108.5q0 -52 -27 -90t-63.5 -57t-85.5 -30.5t-78.5 -13.5t-58.5 -2q0 -43 23.5 -72.5t71.5 -29.5q24 0 40.5 8.5t23.5 19t15.5 19t17.5 8.5q11 0 26 -4.5t32.5 -22t17.5 -44.5q0 -37 -31.5 -62.5t-74 -36t-90.5 -10.5z"/>
<glyph glyph-name="Etilde" horiz-adv-x="501" unicode="Ẽ" d="M381 895q32 0 65 30t42 30q20 0 20 -39q0 -53 -37 -94.5t-106 -41.5q-31 0 -57.5 10t-41.5 22.5t-33.5 22.5t-36.5 10q-24 0 -42.5 -16.5t-32 -32.5t-23.5 -16q-20 0 -20 40q0 52 33.5 93.5t101.5 41.5q49 0 96 -30t72 -30zM385 0h-230q-104 0 -104 85q0 42 21 310 t21 300q0 15 16 15h352q16 0 16 -14l-4 -59q-3 -34 -18.5 -50.5t-57.5 -16.5h-138l-10 -141h142q16 0 16 -14l-4 -59q-3 -34 -18.5 -50.5t-57.5 -16.5h-87l-11 -149h220q16 0 16 -14l-4 -59q-3 -34 -18.5 -50.5t-57.5 -16.5z"/>
<glyph glyph-name="etilde" horiz-adv-x="532" unicode="ẽ" d="M432 720q32 0 65 30t42 30q20 0 20 -39q0 -53 -37 -94.5t-106 -41.5q-40 0 -70.5 16.5t-53.5 32.5t-45 16q-24 0 -42.5 -16t-32 -32.5t-23.5 -16.5q-20 0 -20 40q0 52 33.5 93.5t101.5 41.5q38 0 68 -15t53.5 -30t46.5 -15zM291 427q-72 0 -88 -130q63 1 101 21.5 t38 56.5q0 22 -13.5 37t-37.5 15zM272 -10q-47 0 -87.5 11.5t-77 37t-58 73t-21.5 112.5q0 36 5.5 74t25 87t50 86t87 63t129.5 26q98 0 143 -41.5t45 -108.5q0 -52 -27 -90t-63.5 -57t-85.5 -30.5t-78.5 -13.5t-58.5 -2q0 -43 23.5 -72.5t71.5 -29.5q24 0 40.5 8.5t23.5 19 t15.5 19t17.5 8.5q11 0 26 -4.5t32.5 -22t17.5 -44.5q0 -37 -31.5 -62.5t-74 -36t-90.5 -10.5z"/>
<glyph glyph-name="Idotbelow" horiz-adv-x="314" unicode="Ị" d="M42 -130q0 35 24.5 55.5t65.5 20.5q67 0 67 -57q0 -33 -24 -54t-67 -21q-66 0 -66 56zM210 0h-55q-104 0 -104 85q0 42 21 310t21 300q0 15 16 15h55q59 0 81 -24.5t22 -78.5q0 -19 -19 -291t-22 -301q-1 -15 -16 -15z"/>
<glyph glyph-name="idotbelow" horiz-adv-x="281" unicode="ị" d="M73 668q0 40 29 63t78 23q82 0 82 -64q0 -38 -28.5 -62t-79.5 -24q-81 0 -81 64zM19 -130q0 35 24.5 55.5t65.5 20.5q67 0 67 -57q0 -33 -24 -54t-67 -21q-66 0 -66 56zM180 0h-36q-58 0 -80 23t-22 72q0 6 30 426q1 21 4 25t17 4h39q58 0 80 -22.5t22 -68.5 q0 -40 -32 -439q-1 -12 -5 -16t-17 -4z"/>
<glyph glyph-name="Odotbelow" horiz-adv-x="711" unicode="Ọ" d="M225 -130q0 35 24.5 55.5t65.5 20.5q67 0 67 -57q0 -33 -24 -54t-67 -21q-66 0 -66 56zM384 566q-49 0 -83 -26t-49 -68t-20.5 -78t-5.5 -73q0 -175 117 -175q43 0 74.5 28.5t46.5 73t21.5 84t6.5 76.5q0 158 -108 158zM405 721q143 0 208 -78t65 -227q0 -37 -4 -74 t-14.5 -80t-27 -81t-44 -73.5t-63.5 -61t-87.5 -41t-113.5 -15.5q-284 0 -284 317q0 65 11 123t37.5 112.5t67.5 93t104.5 62t144.5 23.5z"/>
<glyph glyph-name="odotbelow" horiz-adv-x="598" unicode="ọ" d="M177 -130q0 35 24.5 55.5t65.5 20.5q67 0 67 -57q0 -33 -24 -54t-67 -21q-66 0 -66 56zM312 427q-35 0 -59.5 -18.5t-35 -49t-14.5 -56t-4 -52.5q0 -128 81 -128q33 0 57 21.5t35.5 54.5t16.5 63t5 58q0 107 -82 107zM265 -10q-236 0 -236 250q0 64 15 118.5t48.5 101.5 t94 73.5t142.5 26.5q122 0 178.5 -59.5t56.5 -174.5q0 -43 -6.5 -84t-26.5 -88.5t-52 -82t-87 -58t-127 -23.5z"/>
<glyph glyph-name="Udotbelow" horiz-adv-x="659" unicode="Ụ" d="M195 -130q0 35 24.5 55.5t65.5 20.5q67 0 67 -57q0 -33 -24 -54t-67 -21q-66 0 -66 56zM603 326q-3 -31 -7 -56.5t-14 -62t-23.5 -64.5t-37 -58t-53.5 -50t-73.5 -32.5t-96.5 -12.5q-123 0 -182 65.5t-59 171.5q0 53 16 246.5t17 206.5q1 30 17 30h55q59 0 81 -24.5 t22 -78.5q0 -4 -10.5 -158.5t-10.5 -174.5q0 -24 1.5 -40t7.5 -39.5t22 -36t41 -12.5q97 0 111 197q24 297 24 336q0 20 3 25.5t13 5.5h55q61 0 79.5 -19t18.5 -53q0 -142 -17 -312z"/>
<glyph glyph-name="udotbelow" horiz-adv-x="600" unicode="ụ" d="M184 -130q0 35 24.5 55.5t65.5 20.5q67 0 67 -57q0 -33 -24 -54t-67 -21q-66 0 -66 56zM232 465q0 -29 -10.5 -138.5t-10.5 -128.5q0 -34 17.5 -54t48.5 -20q22 0 39.5 15.5t28.5 44t19 60.5t12.5 74.5t7 76t5 74.5t4.5 61t22 20h36q58 0 80 -23t22 -72q0 -6 -30 -426 q-2 -21 -4.5 -25t-16.5 -4h-39q-98 0 -104 82q-53 -92 -154 -92q-74 0 -117.5 45t-43.5 113q0 36 10.5 183.5t14.5 187.5q1 18 7.5 24.5t20.5 6.5h32q59 0 81 -21t22 -64z"/>
<glyph glyph-name="Ygrave" horiz-adv-x="609" unicode="Ỳ" d="M366 843q0 -18 -13 -40.5t-28 -22.5q-43 0 -112 29.5t-69 46.5q0 24 31.5 64t48.5 40q14 0 78 -53.5t64 -63.5zM351 0h-55q-58 0 -81 22.5t-23 73.5q0 42 11 173q-25 46 -57 117q-8 19 -29 66t-35 79t-30 69.5t-24.5 60.5t-8.5 30q0 21 67 21q40 0 67 -7.5t42.5 -24.5 t23 -32.5t15.5 -42.5q35 -118 77 -248q56 118 75.5 166t55.5 158q6 18 12.5 24t20.5 6q11 0 28 -1.5t45 -7t47 -19.5t19 -35q0 -49 -84.5 -198.5t-148.5 -216.5q-4 -129 -14 -218q-1 -15 -16 -15z"/>
<glyph glyph-name="ygrave" horiz-adv-x="610" unicode="ỳ" d="M320 615q-23 0 -78.5 65t-55.5 88q0 17 42 39t68 22q15 0 21 -15q11 -28 27 -66t24.5 -59.5t8.5 -25.5q0 -12 -22 -30t-35 -18zM232 458q0 -33 -9.5 -117t-9.5 -102q0 -36 18 -55.5t46 -19.5q46 0 74.5 48t35.5 131l16 187q1 20 22 20h36q102 0 102 -83q0 -28 -30 -438 q-5 -64 -29 -109.5t-62.5 -69.5t-81.5 -34.5t-95 -10.5q-100 0 -166.5 33.5t-66.5 82.5q0 36 29.5 55t72.5 19q8 0 15 -10t13.5 -22.5t30.5 -22.5t63 -10q116 0 116 188q-49 -88 -158 -88q-166 0 -166 188q0 30 21 301q2 31 28 31h32q60 0 81.5 -22t21.5 -70z"/>
<glyph glyph-name="Ytilde" horiz-adv-x="609" unicode="Ỹ" d="M413 895q25 0 46 15t36 30t25 15q20 0 20 -39q0 -53 -37 -94.5t-106 -41.5q-31 0 -57.5 10t-41.5 22.5t-33.5 22.5t-36.5 10q-24 0 -42.5 -16.5t-32 -32.5t-23.5 -16q-20 0 -20 40q0 52 33.5 93.5t101.5 41.5q49 0 96 -30t72 -30zM351 0h-55q-58 0 -81 22.5t-23 73.5 q0 42 11 173q-25 46 -57 117q-8 19 -29 66t-35 79t-30 69.5t-24.5 60.5t-8.5 30q0 21 67 21q40 0 67 -7.5t42.5 -24.5t23 -32.5t15.5 -42.5q35 -118 77 -248q56 118 75.5 166t55.5 158q6 18 12.5 24t20.5 6q11 0 28 -1.5t45 -7t47 -19.5t19 -35q0 -49 -84.5 -198.5 t-148.5 -216.5q-4 -129 -14 -218q-1 -15 -16 -15z"/>
<glyph glyph-name="ytilde" horiz-adv-x="610" unicode="ỹ" d="M417 720q25 0 46 15t36 30t25 15q20 0 20 -39q0 -53 -37 -94.5t-106 -41.5q-40 0 -70.5 16.5t-53.5 32.5t-45 16q-24 0 -42.5 -16t-32 -32.5t-23.5 -16.5q-20 0 -20 40q0 52 33.5 93.5t101.5 41.5q49 0 96 -30t72 -30zM232 458q0 -33 -9.5 -117t-9.5 -102q0 -36 18 -55.5 t46 -19.5q46 0 74.5 48t35.5 131l16 187q1 20 22 20h36q102 0 102 -83q0 -28 -30 -438q-5 -64 -29 -109.5t-62.5 -69.5t-81.5 -34.5t-95 -10.5q-100 0 -166.5 33.5t-66.5 82.5q0 36 29.5 55t72.5 19q8 0 15 -10t13.5 -22.5t30.5 -22.5t63 -10q116 0 116 188 q-49 -88 -158 -88q-166 0 -166 188q0 30 21 301q2 31 28 31h32q60 0 81.5 -22t21.5 -70z"/>
<glyph glyph-name="endash" horiz-adv-x="616" unicode="–" d="M484 209h-426q-11 0 -11 11l3 54q2 32 16 51t56 19h426q16 0 16 -14l-4 -54q-3 -34 -18.5 -50.5t-57.5 -16.5z"/>
<glyph glyph-name="emdash" horiz-adv-x="898" unicode="—" d="M766 209h-708q-11 0 -11 11l3 54q2 32 16 51t56 19h708q16 0 16 -14l-4 -54q-3 -34 -18.5 -50.5t-57.5 -16.5z"/>
<glyph glyph-name="quoteleft" horiz-adv-x="245" unicode="‘" d="M171 612q24 0 38.5 -17.5t14.5 -49.5q0 -42 -25 -71.5t-71 -29.5q-75 0 -75 94q0 81 44.5 146.5t101.5 65.5q38 0 38 -35q0 -4 -16.5 -20t-33 -39t-16.5 -44z"/>
<glyph glyph-name="quoteright" horiz-adv-x="247" unicode="’" d="M120 582q-24 0 -38.5 17.5t-14.5 49.5q0 42 25 71.5t71 29.5q75 0 75 -94q0 -81 -44.5 -146.5t-101.5 -65.5q-38 0 -38 35q0 4 16.5 20t33 39t16.5 44z"/>
<glyph glyph-name="quotesinglbase" horiz-adv-x="247" unicode="‚" d="M73 -10q-24 0 -38.5 17.5t-14.5 49.5q0 42 25 71.5t71 29.5q75 0 75 -94q0 -81 -44.5 -146.5t-101.5 -65.5q-38 0 -38 35q0 4 16.5 20t33 39t16.5 44z"/>
<glyph glyph-name="quotedblleft" horiz-adv-x="463" unicode="“" d="M389 612q24 0 38.5 -17.5t14.5 -49.5q0 -42 -25 -71.5t-71 -29.5q-75 0 -75 94q0 81 44.5 146.5t101.5 65.5q38 0 38 -35q0 -4 -16.5 -20t-33 -39t-16.5 -44zM171 612q24 0 38.5 -17.5t14.5 -49.5q0 -42 -25 -71.5t-71 -29.5q-75 0 -75 94q0 81 44.5 146.5t101.5 65.5 q38 0 38 -35q0 -4 -16.5 -20t-33 -39t-16.5 -44z"/>
<glyph glyph-name="quotedblright" horiz-adv-x="465" unicode="”" d="M120 582q-24 0 -38.5 17.5t-14.5 49.5q0 42 25 71.5t71 29.5q75 0 75 -94q0 -81 -44.5 -146.5t-101.5 -65.5q-38 0 -38 35q0 4 16.5 20t33 39t16.5 44zM338 582q-24 0 -38.5 17.5t-14.5 49.5q0 42 25 71.5t71 29.5q75 0 75 -94q0 -81 -44.5 -146.5t-101.5 -65.5 q-38 0 -38 35q0 4 16.5 20t33 39t16.5 44z"/>
<glyph glyph-name="quotedblbase" horiz-adv-x="465" unicode="„" d="M73 -10q-24 0 -38.5 17.5t-14.5 49.5q0 42 25 71.5t71 29.5q75 0 75 -94q0 -81 -44.5 -146.5t-101.5 -65.5q-38 0 -38 35q0 4 16.5 20t33 39t16.5 44zM291 -10q-24 0 -38.5 17.5t-14.5 49.5q0 42 25 71.5t71 29.5q75 0 75 -94q0 -81 -44.5 -146.5t-101.5 -65.5 q-38 0 -38 35q0 4 16.5 20t33 39t16.5 44z"/>
<glyph glyph-name="dagger" horiz-adv-x="485" unicode="†" d="M392 349h-74q-6 -80 -40 -514q-1 -12 -5 -16t-17 -4h-20q-58 0 -80 23t-22 72q0 21 31 439h-125q-11 0 -11 11l3 54q2 32 16 51t56 19h72q2 23 6.5 92.5t7.5 104.5q1 21 4 25t17 4h23q58 0 80 -22.5t22 -68.5q0 -20 -8 -135h128q16 0 16 -14l-4 -54q-3 -34 -18.5 -50.5 t-57.5 -16.5z"/>
<glyph glyph-name="daggerdbl" horiz-adv-x="501" unicode="‡" d="M378 73h-71q-15 -178 -19 -238q-1 -12 -5 -16t-17 -4h-20q-58 0 -80 23t-22 72q0 20 10 163h-128q-11 0 -11 11l3 54q2 32 16 51t56 19h74q8 86 11 141h-125q-11 0 -11 11l3 54q2 32 16 51t56 19h72q2 23 6.5 92.5t7.5 104.5q1 21 4 25t17 4h23q58 0 80 -22.5t22 -68.5 q0 -20 -8 -135h128q16 0 16 -14l-4 -54q-3 -34 -18.5 -50.5t-57.5 -16.5h-74l-11 -141h125q16 0 16 -14l-4 -54q-3 -34 -18.5 -50.5t-57.5 -16.5z"/>
<glyph glyph-name="bullet" horiz-adv-x="367" unicode="•" d="M189 409q54 0 83.5 -30t29.5 -77q0 -21 -6 -42.5t-19 -44.5t-40.5 -37.5t-64.5 -14.5q-57 0 -84 32t-27 80q0 54 32.5 94t95.5 40z"/>
<glyph glyph-name="ellipsis" horiz-adv-x="723" unicode="…" d="M592 178q78 0 78 -78q0 -25 -6.5 -47.5t-30 -42.5t-61.5 -20q-78 0 -78 82q0 45 23 75.5t75 30.5zM356 178q78 0 78 -78q0 -25 -6.5 -47.5t-30 -42.5t-61.5 -20q-78 0 -78 82q0 45 23 75.5t75 30.5zM120 178q78 0 78 -78q0 -25 -6.5 -47.5t-30 -42.5t-61.5 -20 q-78 0 -78 82q0 45 23 75.5t75 30.5z"/>
<glyph glyph-name="perthousand" horiz-adv-x="1140" unicode="‰" d="M965 234q-57 0 -57 -95q0 -64 39 -64q29 0 41 34t12 69q0 56 -35 56zM975 319q129 0 129 -137q0 -24 -3.5 -47.5t-14.5 -50.5t-28.5 -47t-48.5 -33.5t-71 -13.5q-134 0 -134 143q0 51 14.5 90.5t54.5 67.5t102 28zM606 234q-57 0 -57 -95q0 -64 39 -64q29 0 41 34t12 69 q0 56 -35 56zM616 319q129 0 129 -137q0 -24 -3.5 -47.5t-14.5 -50.5t-28.5 -47t-48.5 -33.5t-71 -13.5q-134 0 -134 143q0 51 14.5 90.5t54.5 67.5t102 28zM205 635q-57 0 -57 -95q0 -64 39 -64q29 0 41 34t12 69q0 56 -35 56zM215 720q129 0 129 -137q0 -24 -3.5 -47.5 t-14.5 -50.5t-28.5 -47t-48.5 -33.5t-71 -13.5q-134 0 -134 143q0 51 14.5 90.5t54.5 67.5t102 28zM180 -13q-23 0 -29 8t-6 29q0 19 21 58q17 32 372 599q12 19 24 24t31 5q26 0 33 -8.5t7 -28.5q0 -18 -19 -54q-11 -21 -382 -612q-12 -20 -52 -20z"/>
<glyph glyph-name="guilsinglleft" horiz-adv-x="359" unicode="‹" d="M114 275q97 -47 176 -81q10 -4 10 -15q0 -41 -13.5 -87t-40.5 -46q-30 0 -103.5 57.5t-101.5 92.5q-8 9 -8 20q0 6 1 20.5t3 39.5t3 46q1 22 19 36q49 38 137.5 92t114.5 54q12 0 12 -14q0 -70 -13 -104.5t-42 -52.5q-52 -32 -154 -58z"/>
<glyph glyph-name="guilsinglright" horiz-adv-x="360" unicode="›" d="M241 275q-121 50 -178 71q-10 4 -10 16q0 41 14 91.5t41 50.5q30 0 103.5 -57.5t101.5 -92.5q8 -11 8 -20q0 -4 -1 -19t-3 -41t-3 -46q-1 -22 -19 -36q-47 -37 -136.5 -91.5t-115.5 -54.5q-12 0 -12 14q0 65 13 96.5t42 50.5q62 41 155 68z"/>
<glyph glyph-name="fraction" horiz-adv-x="135" unicode="⁄" d="M-139 -13q-23 0 -29 8t-6 29q0 19 21 58q17 32 372 599q12 19 24 24t31 5q26 0 33 -8.5t7 -28.5q0 -18 -19 -54q-11 -21 -382 -612q-13 -20 -52 -20z"/>
<glyph glyph-name="zerosuperior" horiz-adv-x="346" unicode="⁰" d="M201 635q-57 0 -57 -95q0 -64 39 -64q29 0 41 34t12 69q0 56 -35 56zM211 720q129 0 129 -137q0 -24 -3.5 -47.5t-14.5 -50.5t-28.5 -47t-48.5 -33.5t-71 -13.5q-134 0 -134 143q0 51 14.5 90.5t54.5 67.5t102 28z"/>
<glyph glyph-name="foursuperior" horiz-adv-x="327" unicode="⁴" d="M193 477h-125q-39 0 -39 26q50 207 51 207h40q25 0 35 -9.5t10 -30.5q0 -24 -28 -121h61l10 116q0 17 0.5 25.5t1.5 13.5t2.5 5.5t4.5 0.5h44q27 0 36.5 -10.5t9.5 -32.5q0 -24 -9 -145.5t-9 -124.5q0 -7 -7 -7h-45q-47 0 -47 38q0 2 3 49z"/>
<glyph glyph-name="fivesuperior" horiz-adv-x="309" unicode="⁵" d="M149 386q-48 0 -82 15t-34 44q0 19 14 30.5t40 11.5q3 0 7 -4t8 -9t14 -9t24 -4q28 0 45 14.5t17 34.5q0 13 -9.5 23t-29.5 10q-12 0 -20.5 -11.5t-10.5 -11.5h-35q-25 0 -34 8t-9 26q0 33 8.5 94.5t15.5 61.5h212q8 0 8 -6l-2 -37q-1 -30 -34 -30h-112l-9 -58 q17 17 61 17q45 0 71 -22t26 -66q0 -53 -38 -87.5t-112 -34.5z"/>
<glyph glyph-name="sixsuperior" horiz-adv-x="325" unicode="⁶" d="M183 542q-18 0 -27 -15.5t-9 -31.5q0 -29 22 -29q19 0 29 17t10 34q0 25 -25 25zM209 645q-33 0 -47.5 -21t-14.5 -43q0 -9 1 -11q21 31 67 31q40 0 68.5 -21t28.5 -65q0 -54 -39 -89t-110 -35q-69 0 -95.5 36t-26.5 99q0 86 40.5 140t132.5 54q53 0 80 -15t27 -39 q0 -42 -70 -42q-4 0 -6.5 3.5t-4.5 7t-10 7t-21 3.5z"/>
<glyph glyph-name="sevensuperior" horiz-adv-x="254" unicode="⁷" d="M138 397q-4 -7 -10 -7h-36q-23 0 -37 7.5t-14 20.5q0 12 108 214h-101q-5 0 -5 6l2 40q1 10 2.5 16t8.5 11t21 5h187q8 0 8 -7l-2 -34q-1 -11 -6 -19q-102 -196 -126 -253z"/>
<glyph glyph-name="eightsuperior" horiz-adv-x="314" unicode="⁸" d="M185 652q-15 0 -21.5 -12.5t-6.5 -25.5q0 -27 19 -27q15 0 22 14t7 30q0 21 -20 21zM177 545q-35 0 -35 -49q0 -29 23 -29q33 0 33 48q0 30 -21 30zM304 512q0 -44 -37.5 -82.5t-109.5 -38.5q-57 0 -89 24.5t-32 63.5q0 51 48 83q-30 13 -30 57q0 41 33 71t101 30 q59 0 86 -23t27 -58q0 -42 -36 -65q39 -20 39 -62z"/>
<glyph glyph-name="ninesuperior" horiz-adv-x="325" unicode="⁹" d="M176 569q18 0 27 15.5t9 33.5q0 27 -23 27q-18 0 -28 -16.5t-10 -34.5q0 -25 25 -25zM150 466q33 0 47.5 21t14.5 43q0 10 -1 10l-3 -3q-2 -3 -4.5 -5t-6.5 -5.5t-9.5 -6t-12 -5t-15 -4t-18.5 -1.5q-39 0 -67 21t-28 68q0 52 36.5 86.5t109.5 34.5q125 0 125 -135 q0 -86 -40.5 -140t-134.5 -54q-51 0 -78 15t-27 39q0 42 67 42q6 0 14 -10.5t31 -10.5z"/>
<glyph glyph-name="zeroinferior" horiz-adv-x="348" unicode="₀" d="M174 234q-57 0 -57 -95q0 -64 39 -64q29 0 41 34t12 69q0 56 -35 56zM184 319q129 0 129 -137q0 -24 -3.5 -47.5t-14.5 -50.5t-28.5 -47t-48.5 -33.5t-71 -13.5q-134 0 -134 143q0 51 14.5 90.5t54.5 67.5t102 28z"/>
<glyph glyph-name="oneinferior" horiz-adv-x="214" unicode="₁" d="M49 304q17 12 25 16h47q47 0 47 -38q0 -14 -9.5 -142t-9.5 -133q0 -7 -7 -7h-45q-26 0 -36 10.5t-10 34.5q0 41 14 181q-7 -10 -22 -10q-16 0 -25.5 18.5t-9.5 37.5q0 4 41 32z"/>
<glyph glyph-name="twoinferior" horiz-adv-x="318" unicode="₂" d="M283 235q0 -19 -9.5 -38t-22.5 -33.5t-32.5 -30t-33 -23.5t-32.5 -19t-22 -13h135q7 0 7 -6l-2 -42q-1 -15 -12 -22.5t-42 -7.5h-168q-23 0 -32 7.5t-9 25.5v42q0 11 43 34t86 51.5t43 50.5q0 27 -32 27q-16 0 -24.5 -8t-9.5 -18t-5.5 -18t-13.5 -8q-70 0 -70 48 q0 43 40 64.5t96 21.5q66 0 94 -25t28 -60z"/>
<glyph glyph-name="threeinferior" horiz-adv-x="298" unicode="₃" d="M135 247q-26 0 -32 -20q-2 -6 -8 -6q-65 0 -65 40q0 26 32 42t81 16q117 0 117 -80q0 -42 -46 -71q45 -22 45 -61q0 -44 -41 -80.5t-124 -36.5q-94 0 -94 54q0 52 54 52q8 0 9 -5q6 -21 45 -21q20 0 32.5 6t16.5 12.5t4 12.5q0 12 -10.5 19t-23.5 8l-75 3q-7 0 -7 6l2 15 q2 13 4 19.5t9.5 12t20.5 5.5l51 2q32 2 32 27q0 29 -29 29z"/>
<glyph glyph-name="fourinferior" horiz-adv-x="327" unicode="₄" d="M166 87h-125q-39 0 -39 26q50 207 51 207h40q25 0 35 -9.5t10 -30.5q0 -24 -28 -121h61l10 116q0 17 0.5 25.5t1.5 13.5t2.5 5.5t4.5 0.5h44q27 0 36.5 -10.5t9.5 -32.5q0 -24 -9 -145.5t-9 -124.5q0 -7 -7 -7h-45q-47 0 -47 38q0 2 3 49z"/>
<glyph glyph-name="fiveinferior" horiz-adv-x="309" unicode="₅" d="M121 -10q-48 0 -82 15t-34 44q0 19 14 30.5t40 11.5q3 0 7 -4t8 -9t14 -9t24 -4q28 0 45 14.5t17 34.5q0 13 -9.5 23t-29.5 10q-12 0 -20.5 -11.5t-10.5 -11.5h-35q-25 0 -34 8t-9 26q0 33 8.5 94.5t15.5 61.5h212q8 0 8 -6l-2 -37q-1 -30 -34 -30h-112l-9 -58 q17 17 61 17q45 0 71 -22t26 -66q0 -53 -38 -87.5t-112 -34.5z"/>
<glyph glyph-name="sixinferior" horiz-adv-x="325" unicode="₆" d="M155 141q-18 0 -27 -15.5t-9 -31.5q0 -29 22 -29q19 0 29 17t10 34q0 25 -25 25zM181 244q-33 0 -47.5 -21t-14.5 -43q0 -9 1 -11q21 31 67 31q40 0 68.5 -21t28.5 -65q0 -54 -39 -89t-110 -35q-69 0 -95.5 36t-26.5 99q0 86 40.5 140t132.5 54q53 0 80 -15t27 -39 q0 -42 -70 -42q-4 0 -6.5 3.5t-4.5 7t-10 7t-21 3.5z"/>
<glyph glyph-name="seveninferior" horiz-adv-x="255" unicode="₇" d="M111 7q-3 -7 -10 -7h-36q-23 0 -37 7.5t-14 20.5q0 12 108 214h-101q-5 0 -5 6l2 40q1 10 2.5 16t8.5 11t21 5h187q8 0 8 -7l-2 -34q-1 -11 -6 -19q-102 -196 -126 -253z"/>
<glyph glyph-name="eightinferior" horiz-adv-x="316" unicode="₈" d="M158 251q-15 0 -21.5 -12.5t-6.5 -25.5q0 -27 19 -27q15 0 22 14t7 30q0 21 -20 21zM150 144q-35 0 -35 -49q0 -29 23 -29q33 0 33 48q0 30 -21 30zM277 111q0 -44 -37.5 -82.5t-109.5 -38.5q-57 0 -89 24.5t-32 63.5q0 52 48 83q-30 13 -30 57q0 41 33 71t101 30 q59 0 86 -23t27 -58q0 -42 -36 -65q39 -19 39 -62z"/>
<glyph glyph-name="nineinferior" horiz-adv-x="325" unicode="₉" d="M148 168q18 0 27 15.5t9 33.5q0 27 -23 27q-18 0 -28 -16.5t-10 -34.5q0 -25 25 -25zM122 65q33 0 47.5 21t14.5 43q0 10 -1 10l-3 -3q-2 -3 -4.5 -5t-6.5 -5.5t-9.5 -6t-12 -5t-15 -4t-18.5 -1.5q-39 0 -67 21t-28 68q0 52 36.5 86.5t109.5 34.5q125 0 125 -135 q0 -86 -40.5 -140t-134.5 -54q-51 0 -78 15t-27 39q0 42 67 42q6 0 14 -10.5t31 -10.5z"/>
<glyph glyph-name="Euro" horiz-adv-x="646" unicode="€" d="M439 566q-58 0 -91 -57h148q16 0 16 -14l-4 -54q-3 -34 -18.5 -50.5t-57.5 -16.5h-119l-2 -55h159q16 0 16 -14l-4 -54q-3 -34 -18.5 -50.5t-57.5 -16.5h-72q20 -38 69 -38q40 0 72 12t53.5 24t34.5 12q20 0 20 -30q0 -29 -15 -89q-7 -30 -58 -57.5t-131 -27.5 q-200 0 -242 194h-103q-11 0 -11 11l3 54q2 32 16 51t56 19h27q0 28 3 55h-68q-11 0 -11 11l3 54q2 32 16 51t56 19h32q77 211 312 211q83 0 124 -24t41 -51q0 -119 -37 -119q-14 0 -33.5 10t-50 20t-73.5 10z"/>
<glyph glyph-name="servicemark" horiz-adv-x="735" unicode="℠" d="M191 715q41 0 62 -18t21 -48q0 -52 -54 -52q-9 0 -12.5 7t-3 15.5t-5.5 15.5t-20 7q-13 0 -22.5 -7.5t-9.5 -19.5q0 -16 18.5 -27.5t41.5 -19.5t41.5 -30t18.5 -57q0 -42 -26.5 -68t-77.5 -26q-42 0 -73.5 16.5t-31.5 32.5q0 61 26 61q4 0 25 -17.5t43 -17.5q28 0 28 18 q0 14 -17.5 24.5t-38 17.5t-38 29t-17.5 58q0 53 36 79.5t86 26.5zM605 630q-68 -209 -77 -232q-5 -8 -26 -8q-44 0 -50 23q-11 34 -26 113t-22 104q0 -25 -5 -219q0 -14 -1 -17.5t-7 -3.5h-39q-47 0 -47 40q0 7 1.5 25.5t4 51t3.5 53.5q3 38 6 89q3 41 4.5 51t6.5 10h88 q13 0 22.5 -3.5t16 -13.5t10 -21t7 -33t6 -42t7 -54t9.5 -65q11 48 17.5 76.5t8 36.5t7.5 34t17 77q0 8 11 8h95q27 0 36.5 -10.5t9.5 -32.5q0 -24 -9 -145.5t-9 -124.5q0 -7 -7 -7h-40q-47 0 -47 37q0 7 8.5 88t9.5 115z"/>
<glyph glyph-name="trademark" horiz-adv-x="770" unicode="™" d="M291 637h-48l-17 -240q0 -7 -5 -7h-39q-47 0 -47 38q0 12 2.5 46.5t6.5 84.5t6 78h-73q-5 0 -5 6l3 35q2 32 30 32h216q7 0 7 -7l-3 -36q-3 -30 -34 -30zM637 630q-3 -9 -18.5 -62t-31 -99t-27.5 -71q-5 -8 -26 -8q-44 0 -50 23q-11 34 -26 113t-22 104q0 -25 -5 -219 q0 -21 -7 -21h-40q-47 0 -47 40q0 7 1.5 25.5t4 51t3.5 53.5q3 38 6 89q3 41 4.5 51t6.5 10h88q13 0 22.5 -3.5t16 -13.5t10 -21t7 -33t6 -42t7 -54t9.5 -65q11 48 17.5 76.5t8 36.5t7.5 34t17 77q0 8 11 8h95q27 0 36.5 -10.5t9.5 -32.5q0 -24 -9 -145.5t-9 -124.5 q0 -7 -7 -7h-40q-47 0 -47 37q0 7 8.5 88t9.5 115z"/>
<glyph glyph-name="onethird" horiz-adv-x="687" unicode="⅓" d="M518 247q-26 0 -32 -20q-2 -6 -8 -6q-65 0 -65 40q0 26 32 42t81 16q117 0 117 -80q0 -42 -46 -71q45 -22 45 -61q0 -44 -41 -80.5t-124 -36.5q-94 0 -94 54q0 52 54 52q8 0 9 -5q6 -21 45 -21q20 0 32.5 6t16.5 12.5t4 12.5q0 12 -10.5 19t-23.5 8l-75 3q-7 0 -7 6l2 15 q2 13 4 19.5t9.5 12t20.5 5.5l51 2q32 2 32 27q0 29 -29 29zM90 694q18 12 25 16h47q47 0 47 -38q0 -14 -9.5 -142t-9.5 -133q0 -7 -7 -7h-45q-26 0 -36 10.5t-10 34.5q0 41 14 181q-7 -10 -22 -10q-16 0 -25.5 18.5t-9.5 37.5q0 4 41 32zM102 -13q-23 0 -29 8t-6 29 q0 19 21 58q17 32 372 599q12 19 24 24t31 5q26 0 33 -8.5t7 -28.5q0 -18 -19 -54q-11 -21 -382 -612q-12 -20 -52 -20z"/>
<glyph glyph-name="twothirds" horiz-adv-x="751" unicode="⅔" d="M316 635q0 -16 -6.5 -32.5t-18.5 -31.5t-24 -27t-30 -24.5t-28.5 -19.5t-26.5 -16.5t-18 -10.5h135q7 0 7 -6l-2 -42q-1 -15 -12 -22.5t-42 -7.5h-168q-23 0 -32 7.5t-9 25.5v42q0 4 3 10q7 9 50.5 33.5t81 51t37.5 46.5q0 27 -32 27q-16 0 -24.5 -8t-9.5 -18t-5.5 -18 t-13.5 -8q-70 0 -70 48q0 43 40 64.5t96 21.5q66 0 94 -25t28 -60zM584 247q-26 0 -32 -20q-2 -6 -8 -6q-65 0 -65 40q0 26 32 42t81 16q117 0 117 -80q0 -42 -46 -71q45 -22 45 -61q0 -44 -41 -80.5t-124 -36.5q-94 0 -94 54q0 52 54 52q8 0 9 -5q6 -21 45 -21q20 0 32.5 6 t16.5 12.5t4 12.5q0 12 -10.5 19t-23.5 8l-75 3q-7 0 -7 6l2 15q2 13 4 19.5t9.5 12t20.5 5.5l51 2q32 2 32 27q0 29 -29 29zM168 -13q-23 0 -29 8t-6 29q0 19 21 58q17 32 372 599q12 19 24 24t31 5q26 0 33 -8.5t7 -28.5q0 -18 -19 -54q-11 -21 -382 -612q-12 -20 -52 -20 z"/>
<glyph glyph-name="oneeighth" horiz-adv-x="684" unicode="⅛" d="M522 251q-15 0 -21.5 -12.5t-6.5 -25.5q0 -27 19 -27q15 0 22 14t7 30q0 21 -20 21zM514 144q-35 0 -35 -49q0 -29 23 -29q33 0 33 48q0 30 -21 30zM641 111q0 -44 -37.5 -82.5t-109.5 -38.5q-57 0 -89 24.5t-32 63.5q0 52 48 83q-30 13 -30 57q0 41 33 71t101 30 q59 0 86 -23t27 -58q0 -42 -36 -65q39 -19 39 -62zM90 694q18 12 25 16h47q47 0 47 -38q0 -14 -9.5 -142t-9.5 -133q0 -7 -7 -7h-45q-26 0 -36 10.5t-10 34.5q0 41 14 181q-7 -10 -22 -10q-16 0 -25.5 18.5t-9.5 37.5q0 4 41 32zM102 -13q-23 0 -29 8t-6 29q0 19 21 58 q17 32 372 599q12 19 24 24t31 5q26 0 33 -8.5t7 -28.5q0 -18 -19 -54q-11 -21 -382 -612q-12 -20 -52 -20z"/>
<glyph glyph-name="threeeighths" horiz-adv-x="728" unicode="⅜" d="M171 648q-26 0 -32 -20q-2 -6 -8 -6q-65 0 -65 40q0 26 32 42t81 16q117 0 117 -80q0 -42 -46 -71q45 -22 45 -61q0 -44 -41 -80.5t-124 -36.5q-94 0 -94 54q0 52 54 52q8 0 9 -5q6 -21 45 -21q20 0 32.5 6t16.5 12.5t4 12.5q0 12 -10.5 19t-23.5 8l-75 3q-7 0 -7 6l2 15 q2 13 4 19.5t9.5 12t20.5 5.5l51 2q32 2 32 27q0 29 -29 29zM568 251q-15 0 -21.5 -12.5t-6.5 -25.5q0 -27 19 -27q15 0 22 14t7 30q0 21 -20 21zM560 144q-35 0 -35 -49q0 -29 23 -29q33 0 33 48q0 30 -21 30zM687 111q0 -44 -37.5 -82.5t-109.5 -38.5q-57 0 -89 24.5 t-32 63.5q0 52 48 83q-30 13 -30 57q0 41 33 71t101 30q59 0 86 -23t27 -58q0 -42 -36 -65q39 -19 39 -62zM148 -13q-23 0 -29 8t-6 29q0 19 21 58q17 32 372 599q12 19 24 24t31 5q26 0 33 -8.5t7 -28.5q0 -18 -19 -54q-11 -21 -382 -612q-12 -20 -52 -20z"/>
<glyph glyph-name="fiveeighths" horiz-adv-x="738" unicode="⅝" d="M154 386q-48 0 -82 15t-34 44q0 19 14 30.5t40 11.5q3 0 7 -4t8 -9t14 -9t24 -4q28 0 45 14.5t17 34.5q0 13 -9.5 23t-29.5 10q-12 0 -20.5 -11.5t-10.5 -11.5h-35q-25 0 -34 8t-9 26q0 33 8.5 94.5t15.5 61.5h212q8 0 8 -6l-2 -37q-1 -30 -34 -30h-112l-9 -58 q17 17 61 17q45 0 71 -22t26 -66q0 -53 -38 -87.5t-112 -34.5zM578 251q-15 0 -21.5 -12.5t-6.5 -25.5q0 -27 19 -27q15 0 22 14t7 30q0 21 -20 21zM570 144q-35 0 -35 -49q0 -29 23 -29q33 0 33 48q0 30 -21 30zM697 111q0 -44 -37.5 -82.5t-109.5 -38.5q-57 0 -89 24.5 t-32 63.5q0 52 48 83q-30 13 -30 57q0 41 33 71t101 30q59 0 86 -23t27 -58q0 -42 -36 -65q39 -19 39 -62zM158 -13q-23 0 -29 8t-6 29q0 19 21 58q17 32 372 599q12 19 24 24t31 5q26 0 33 -8.5t7 -28.5q0 -18 -19 -54q-11 -21 -382 -612q-12 -20 -52 -20z"/>
<glyph glyph-name="seveneighths" horiz-adv-x="662" unicode="⅞" d="M152 397q-4 -7 -10 -7h-36q-23 0 -37 7.5t-14 20.5q0 12 108 214h-101q-5 0 -5 6l2 40q1 10 2.5 16t8.5 11t21 5h187q8 0 8 -7l-2 -34q-1 -11 -6 -19q-102 -196 -126 -253zM502 251q-15 0 -21.5 -12.5t-6.5 -25.5q0 -27 19 -27q15 0 22 14t7 30q0 21 -20 21zM494 144 q-35 0 -35 -49q0 -29 23 -29q33 0 33 48q0 30 -21 30zM621 111q0 -44 -37.5 -82.5t-109.5 -38.5q-57 0 -89 24.5t-32 63.5q0 52 48 83q-30 13 -30 57q0 41 33 71t101 30q59 0 86 -23t27 -58q0 -42 -36 -65q39 -19 39 -62zM82 -13q-23 0 -29 8t-6 29q0 19 21 58 q17 32 372 599q12 19 24 24t31 5q26 0 33 -8.5t7 -28.5q0 -18 -19 -54q-11 -21 -382 -612q-12 -20 -52 -20z"/>
<glyph glyph-name="minus" horiz-adv-x="544" unicode="−" d="M410 276h-342q-11 0 -11 11q0 7 2 41q2 32 16 51t56 19h342q16 0 16 -14l-3 -41q-3 -34 -18.5 -50.5t-57.5 -16.5z"/>
<glyph glyph-name="uni2215" horiz-adv-x="435" unicode="∕" d="M11 -13q-23 0 -29 8t-6 29q0 19 21 58q17 32 372 599q12 19 24 24t31 5q26 0 33 -8.5t7 -28.5q0 -18 -19 -54q-11 -21 -382 -612q-13 -20 -52 -20z"/>
<glyph glyph-name="uni2219" horiz-adv-x="260" unicode="∙" d="M137 367q78 0 78 -78q0 -25 -6.5 -47.5t-30 -42.5t-61.5 -20q-78 0 -78 82q0 45 23 75.5t75 30.5z"/>
<glyph glyph-name="commaaccent" horiz-adv-x="132" unicode="" d="M50 -131q-40 0 -40 39q0 52 59 52q53 0 53 -56q0 -42 -21 -73t-53 -31q-30 0 -30 32l16 14q16 13 16 23z"/>
<glyph glyph-name="dotaccent.cap" d="M0 844q0 40 29 63t78 23q82 0 82 -64q0 -38 -28.5 -62t-79.5 -24q-81 0 -81 64z" horiz-adv-x="189"/>
<glyph glyph-name="dotbelow" d="M16 -130q0 35 24.5 55.5t65.5 20.5q67 0 67 -57q0 -33 -24 -54t-67 -21q-66 0 -66 56z" horiz-adv-x="189"/>
<glyph glyph-name="caron.alt" d="M62 616q-52 0 -52 53q0 37 25 56.5t60 19.5q65 0 65 -79q0 -59 -32.5 -104.5t-76.5 -45.5q-38 0 -38 42q0 1 24.5 20.5t24.5 37.5z" horiz-adv-x="170"/>
<glyph glyph-name="dieresis.cap" d="M228 838q0 36 24 57t65 21q69 0 69 -58q0 -34 -24 -56t-66 -22q-68 0 -68 58zM0 838q0 36 24 57t65 21q69 0 69 -58q0 -34 -24 -56t-66 -22q-68 0 -68 58z" horiz-adv-x="386"/>
<glyph glyph-name="acute.cap" d="M46 780q-19 0 -32.5 22t-13.5 33q0 15 68 72t92 57q19 0 59 -34.5t40 -49.5q0 -22 -90.5 -61t-122.5 -39z" horiz-adv-x="259"/>
<glyph glyph-name="grave.cap" d="M222 843q0 -18 -13 -40.5t-28 -22.5q-43 0 -112 29.5t-69 46.5q0 24 31.5 64t48.5 40q14 0 78 -53.5t64 -63.5z" horiz-adv-x="222"/>
<glyph glyph-name="hungarumlaut.cap" d="M305 780q-19 0 -32.5 22t-13.5 33q0 15 68 72t92 57q19 0 59 -34.5t40 -49.5q0 -22 -90.5 -61t-122.5 -39zM46 780q-19 0 -32.5 22t-13.5 33q0 15 68 72t92 57q19 0 59 -34.5t40 -49.5q0 -22 -90.5 -61t-122.5 -39z" horiz-adv-x="517"/>
</font>
</defs>
</svg>
