<?xml version="1.0" standalone="no"?>
<!DOCTYPE svg PUBLIC "-//W3C//DTD SVG 1.1//EN" "http://www.w3.org/Graphics/SVG/1.1/DTD/svg11.dtd" >
<svg xmlns="http://www.w3.org/2000/svg">
<metadata></metadata>
<defs>
<font id="olneylight" horiz-adv-x="590" >
<font-face units-per-em="1000" ascent="750" descent="-250" />
<missing-glyph horiz-adv-x="323" />
<glyph horiz-adv-x="1000" />
<glyph horiz-adv-x="1000" />
<glyph unicode="&#xd;" horiz-adv-x="1000" />
<glyph unicode=" "  horiz-adv-x="323" />
<glyph unicode="&#x09;" horiz-adv-x="323" />
<glyph unicode="&#xa0;" horiz-adv-x="323" />
<glyph unicode="!" horiz-adv-x="221" d="M60 398l-10 333h121l-10 -333l-20 -158h-61zM50 0v111h121v-111h-121z" />
<glyph unicode="&#x22;" horiz-adv-x="342" d="M30 561v100h111v-100l-29 -129h-53zM201 561v100h111v-100l-29 -129h-53z" />
<glyph unicode="#" horiz-adv-x="792" d="M115 392l35 80h137l62 189h91l-62 -189h130l62 189h91l-62 -189l143 1l-35 -80l-134 -1l-40 -123l144 1l-35 -80l-136 -1l-62 -189h-91l62 189h-130l-62 -189h-91l62 189h-144l35 80h135l41 123h-146zM352 392l-41 -123h130l41 123h-130z" />
<glyph unicode="$" horiz-adv-x="593" d="M237 -110v110h-167v85h303q30 0 41.5 7t11.5 26v130q0 33 -73 33h-124q-169 0 -169 170v40q0 170 169 170h8v70h101v-70h175v-85h-293q-30 0 -41.5 -7t-11.5 -26v-136q0 -33 73 -33h124q169 0 169 -170v-34q0 -82 -50 -126t-139 -44h-6v-110h-101z" />
<glyph unicode="%" horiz-adv-x="911" d="M235 0l360 731h101l-360 -731h-101zM851 250v-135q0 -55 -34 -85t-94 -30h-67q-60 0 -94 30t-34 85v135q0 55 34 85t94 30h67q60 0 94 -30t34 -85zM608 105q0 -23 8 -33t28 -10h91q20 0 28 10t8 33v155q0 24 -8 33.5t-28 9.5h-91q-20 0 -28 -9.5t-8 -33.5v-155zM383 546 v-135q0 -55 -34 -85t-94 -30h-67q-60 0 -94 30t-34 85v135q0 55 34 85t94 30h67q60 0 94 -30t34 -85zM140 401q0 -23 8 -33t28 -10h91q20 0 28 10t8 33v155q0 24 -8 33.5t-28 9.5h-91q-20 0 -28 -9.5t-8 -33.5v-155z" />
<glyph unicode="&#x26;" horiz-adv-x="672" d="M365 0h-106q-103 0 -146 35.5t-43 104.5v74q0 104 118 124q-36 5 -63.5 30.5t-27.5 55.5v97q0 69 42 104.5t145 35.5h77q103 0 145 -35.5t42 -104.5v-53h-109v62q0 28 -11 37t-42 9h-129q-58 0 -58 -38v-120q0 -22 14 -30.5t44 -8.5h345v-94h-50v-145q0 -69 -42 -104.5 t-145 -35.5zM410 85q26 1 35.5 10.5t9.5 35.5v154h-225q-31 0 -42 -8.5t-11 -34.5v-114q0 -26 11 -34.5t42 -8.5h180z" />
<glyph unicode="'" horiz-adv-x="211" d="M50 561v100h111v-100l-29 -129h-53z" />
<glyph unicode="(" horiz-adv-x="356" d="M171 275q0 -378 83 -378h42v-77h-45q-76 0 -122.5 89t-48.5 264v214q2 174 48 259t123 85h45v-77h-42q-83 0 -83 -379z" />
<glyph unicode=")" horiz-adv-x="356" d="M185 275q0 379 -83 379h-42v77h45q77 0 123 -85t48 -259v-214q-2 -175 -48.5 -264t-122.5 -89h-45v77h42q83 0 83 378z" />
<glyph unicode="*" horiz-adv-x="569" d="M107 635l141 -125v191h73v-191l141 125l47 -52l-159 -127l159 -127l-47 -52l-141 124v-190h-73v190l-141 -124l-47 52l159 127l-159 127z" />
<glyph unicode="+" horiz-adv-x="547" d="M50 267v85h178v178h90v-178h179v-85h-179v-178h-90v178h-178z" />
<glyph unicode="," horiz-adv-x="236" d="M65 0v111h121v-111l-110 -129h-61z" />
<glyph unicode="-" horiz-adv-x="481" d="M50 264v85h381v-85h-381z" />
<glyph unicode="." horiz-adv-x="221" d="M50 0v111h121v-111h-121z" />
<glyph unicode="/" horiz-adv-x="611" d="M40 -180l430 911h101l-430 -911h-101z" />
<glyph unicode="0" horiz-adv-x="631" d="M561 491v-321q0 -82 -50 -126t-139 -44h-113q-89 0 -139 44t-50 126v321q0 82 50 126t139 44h113q89 0 139 -44t50 -126zM177 148q0 -34 11.5 -48.5t41.5 -14.5h171q30 0 41.5 14.5t11.5 48.5v365q0 34 -11.5 48.5t-41.5 14.5h-171q-30 0 -41.5 -14.5t-11.5 -48.5v-365z " />
<glyph unicode="1" horiz-adv-x="400" d="M330 661v-661h-107v549l-134 -102l-49 71l186 143h104z" />
<glyph unicode="2" horiz-adv-x="631" d="M454 417v116q0 26 -11 34.5t-42 8.5h-171q-31 0 -42 -9t-11 -37v-72h-107v63q0 69 42 104.5t145 35.5h117q103 0 145 -35.5t42 -104.5v-85q0 -74 -63 -117l-323 -234h386v-85h-487v52q0 60 62 106l286 216q12 8 22 21t10 22z" />
<glyph unicode="3" horiz-adv-x="631" d="M254 661h118q103 0 145 -35.5t42 -104.5v-60q0 -54 -31.5 -88t-72.5 -32q44 -2 75 -33t31 -86v-82q0 -69 -43 -104.5t-146 -35.5h-118q-103 0 -146 35.5t-43 104.5v21h107v-18q0 -58 57 -58h172q53 0 53 63v72q0 68 -53 68h-198v85h196q53 0 53 68v72q0 63 -53 63h-172 q-52 0 -53 -50v-34h-107v29q0 69 42 104.5t145 35.5z" />
<glyph unicode="4" horiz-adv-x="631" d="M581 201v-85h-84v-116h-97v116h-360v78l353 467h104v-460h84zM158 201h242v333z" />
<glyph unicode="5" horiz-adv-x="631" d="M177 576v-179h225q70 0 114.5 -45t44.5 -125v-57q0 -82 -50 -126t-139 -44h-113q-89 0 -139 44t-50 126v13h107q0 -64 10.5 -81t42.5 -17h171q30 0 41.5 14.5t11.5 48.5v106q0 34 -11.5 48.5t-41.5 14.5h-331v344h476v-85h-369z" />
<glyph unicode="6" horiz-adv-x="631" d="M177 513v-107h200q89 0 139 -44t50 -126v-66q0 -82 -50 -126t-139 -44h-118q-89 0 -139 44t-50 126v321q0 82 50 126t139 44h272v-85h-301q-30 0 -41.5 -14.5t-11.5 -48.5zM177 148q0 -34 11.5 -48.5t41.5 -14.5h176q30 0 41.5 14.5t11.5 48.5v110q0 34 -11.5 48.5 t-41.5 14.5h-229v-173z" />
<glyph unicode="7" horiz-adv-x="526" d="M260 148v-148h-107v148q0 66 24 103l198 325h-355v85h466v-88l-199 -329q-27 -45 -27 -96z" />
<glyph unicode="8" horiz-adv-x="631" d="M372 0h-113q-103 0 -146 35.5t-43 104.5v82q0 55 31 86t75 33q-41 -2 -72.5 32t-31.5 88v60q0 69 42 104.5t145 35.5h113q103 0 145 -35.5t42 -104.5v-60q0 -54 -31.5 -88t-72.5 -32q44 -2 75 -33t31 -86v-82q0 -69 -43 -104.5t-146 -35.5zM401 289h-171q-31 0 -42 -8.5 t-11 -34.5v-118q0 -26 11 -34.5t42 -8.5h171q31 0 42 8.5t11 34.5v118q0 26 -11 34.5t-42 8.5zM397 576h-163q-31 0 -42 -8.5t-11 -34.5v-116q0 -26 11 -34.5t42 -8.5h163q31 0 42 8.5t11 34.5v116q0 26 -11 34.5t-42 8.5z" />
<glyph unicode="9" horiz-adv-x="631" d="M454 148v107h-200q-89 0 -139 44t-50 126v66q0 82 50 126t139 44h118q89 0 139 -44t50 -126v-321q0 -82 -50 -126t-139 -44h-272v85h301q30 0 41.5 14.5t11.5 48.5zM454 513q0 34 -11.5 48.5t-41.5 14.5h-176q-30 0 -41.5 -14.5t-11.5 -48.5v-110q0 -34 11.5 -48.5 t41.5 -14.5h229v173z" />
<glyph unicode=":" horiz-adv-x="271" d="M50 0v111h121v-111h-121zM50 371v111h121v-111h-121z" />
<glyph unicode=";" horiz-adv-x="271" d="M100 371v111h121v-111h-121zM100 0v111h121v-111l-110 -129h-61z" />
<glyph unicode="&#x3c;" horiz-adv-x="476" d="M191 325l235 -215h-138l-228 215l228 215h138z" />
<glyph unicode="=" horiz-adv-x="547" d="M50 209v85h447v-85h-447zM50 347v85h447v-85h-447z" />
<glyph unicode="&#x3e;" horiz-adv-x="476" d="M50 110l235 215l-235 215h138l228 -215l-228 -215h-138z" />
<glyph unicode="?" horiz-adv-x="531" d="M374 437v104q0 26 -11 34.5t-42 8.5h-111q-31 0 -42 -9t-11 -37v-40h-107v43q0 50 36.5 85t100.5 35h152q69 0 105.5 -35t36.5 -85v-85q0 -74 -63 -107l-142 -80v-88h-107v110l173 103q12 7 22 20t10 23zM163 0v111h121v-111h-121z" />
<glyph unicode="@" horiz-adv-x="788" d="M552 427l-30 -172q-6 -31 14 -31h64q21 0 21 31v257q0 34 -11.5 48.5t-41.5 14.5h-348q-53 0 -53 -73v-355q0 -34 11.5 -48.5t41.5 -14.5h508v-84h-479q-89 0 -139 44t-50 126v321q0 82 50 126t139 44h290q89 0 139 -44t50 -126v-169q0 -83 -38 -127.5t-110 -44.5h-72 q-30 0 -45 17t-12 45q-18 -42 -34 -52t-55 -10h-64q-39 0 -62.5 26t-15.5 76l30 180q5 30 26.5 54.5t53.5 24.5h144q42 0 64 -22.5t14 -61.5zM436 252l35 148q5 28 -2 40.5t-29 13.5h-58q-22 -1 -33 -13.5t-16 -40.5l-25 -129q-5 -29 3 -41.5t33 -12.5h46q20 0 30 8t16 27z " />
<glyph unicode="A" horiz-adv-x="636" d="M10 0l239 661h137l240 -661h-108l-52 148h-297l-52 -148h-107zM318 570l-119 -337h238z" />
<glyph unicode="B" horiz-adv-x="664" d="M80 0v661h335q103 0 145 -35.5t42 -104.5v-63q0 -54 -31.5 -88t-72.5 -32q44 -2 75 -33t31 -86v-79q0 -69 -43 -104.5t-146 -35.5h-335zM187 293v-208h259q31 0 42 8.5t11 34.5v122q0 26 -11 34.5t-42 8.5h-259zM187 576v-193h255q31 0 42 8.5t11 34.5v107q0 26 -11 34.5 t-42 8.5h-255z" />
<glyph unicode="C" horiz-adv-x="574" d="M187 148q0 -34 11.5 -48.5t41.5 -14.5h304v-85h-275q-89 0 -139 44t-50 126v321q0 82 50 126t139 44h275v-85h-304q-30 0 -41.5 -14.5t-11.5 -48.5v-365z" />
<glyph unicode="D" horiz-adv-x="668" d="M608 491v-321q0 -81 -54.5 -125.5t-144.5 -44.5h-329v661h329q90 0 144.5 -44.5t54.5 -125.5zM187 576v-491h251q63 0 63 63v365q0 63 -63 63h-251z" />
<glyph unicode="E" horiz-adv-x="607" d="M80 0v661h457v-85h-350v-191h320v-85h-320v-215h350v-85h-457z" />
<glyph unicode="F" horiz-adv-x="567" d="M80 0v661h457v-85h-350v-193h320v-85h-320v-298h-107z" />
<glyph unicode="G" horiz-adv-x="654" d="M177 148q0 -34 11.5 -48.5t41.5 -14.5h257v266h107v-351h-335q-89 0 -139 44t-50 126v321q0 82 50 126t139 44h335v-85h-364q-30 0 -41.5 -14.5t-11.5 -48.5v-365z" />
<glyph unicode="H" horiz-adv-x="732" d="M545 0v279h-358v-279h-107v661h107v-297h358v297h107v-661h-107z" />
<glyph unicode="I" horiz-adv-x="267" d="M80 0v661h107v-661h-107z" />
<glyph unicode="J" horiz-adv-x="514" d="M327 148v513h107v-491q0 -80 -59 -125t-150 -45h-165v85h214q30 0 41.5 14.5t11.5 48.5z" />
<glyph unicode="K" horiz-adv-x="653" d="M333 343h1l289 -343h-127l-246 288h-63v-288h-107v661h107v-288h63l226 288h124z" />
<glyph unicode="L" horiz-adv-x="567" d="M80 0v661h107v-576h350v-85h-457z" />
<glyph unicode="M" horiz-adv-x="896" d="M80 0v661h191v-1l177 -588l177 588v1h191v-661h-107v606l-191 -606h-140l-191 606v-606h-107z" />
<glyph unicode="N" horiz-adv-x="752" d="M80 0v661h177l308 -587v587h107v-661h-179l-306 587v-587h-107z" />
<glyph unicode="O" horiz-adv-x="673" d="M613 491v-321q0 -82 -50 -126t-139 -44h-175q-89 0 -139 44t-50 126v321q0 82 50 126t139 44h175q89 0 139 -44t50 -126zM167 148q0 -34 11.5 -48.5t41.5 -14.5h233q30 0 41.5 14.5t11.5 48.5v365q0 34 -11.5 48.5t-41.5 14.5h-233q-30 0 -41.5 -14.5t-11.5 -48.5v-365z " />
<glyph unicode="P" horiz-adv-x="628" d="M80 0v661h309q90 0 144.5 -44.5t54.5 -125.5v-121q0 -81 -54.5 -125.5t-144.5 -44.5h-202v-200h-107zM187 576v-291h231q63 0 63 63v165q0 63 -63 63h-231z" />
<glyph unicode="Q" horiz-adv-x="696" d="M633 491v-321q0 -80 -48 -124t-133 -46h214v-91l-301 40v51h-96q-89 0 -139 44t-50 126v321q0 82 50 126t139 44h175q89 0 139 -44t50 -126zM187 148q0 -34 11.5 -48.5t41.5 -14.5h233q30 0 41.5 14.5t11.5 48.5v365q0 34 -11.5 48.5t-41.5 14.5h-233q-30 0 -41.5 -14.5 t-11.5 -48.5v-365z" />
<glyph unicode="R" horiz-adv-x="654" d="M486 249l128 -249h-116l-112 240h-199v-240h-107v661h286q116 0 161.5 -33.5t45.5 -130.5v-128q0 -52 -26 -82.5t-61 -37.5zM187 576v-251h226q53 0 53 43v165q0 43 -53 43h-226z" />
<glyph unicode="S" horiz-adv-x="619" d="M462 120v147l-295 39q-56 7 -86.5 49.5t-30.5 98.5v27q0 87 53 133.5t148 46.5h285v-85h-323q-31 0 -43.5 -7.5t-12.5 -27.5v-141l295 -41q117 -16 117 -152v-27q0 -87 -53 -133.5t-148 -46.5h-305v85h343q31 0 43.5 7.5t12.5 27.5z" />
<glyph unicode="T" horiz-adv-x="621" d="M40 580v81h541v-81h-217v-580h-107v580h-217z" />
<glyph unicode="U" horiz-adv-x="643" d="M50 180v481h107v-513q0 -63 63 -63h203q63 0 63 63v513h107v-481q0 -82 -55 -131t-144 -49h-145q-89 0 -144 49t-55 131z" />
<glyph unicode="V" horiz-adv-x="616" d="M239 0l-229 661h107l191 -570l190 570h108l-230 -661h-137z" />
<glyph unicode="W" horiz-adv-x="928" d="M185 0l-175 661h107l143 -580l138 580h132l138 -580l143 580h107l-175 -661h-150l-129 555l-129 -555h-150z" />
<glyph unicode="X" horiz-adv-x="643" d="M401 330l202 -330h-118l-164 274l-163 -274h-118l202 330l-202 331h118l163 -276l164 276h118z" />
<glyph unicode="Y" horiz-adv-x="627" d="M617 661l-250 -447v-214h-107v214l-250 447h118l185 -360l186 360h118z" />
<glyph unicode="Z" horiz-adv-x="611" d="M561 591l-386 -506h396v-85h-531v72h1l386 504h-367v85h501v-70z" />
<glyph unicode="[" horiz-adv-x="325" d="M80 -180v911h195v-77h-94v-757h94v-77h-195z" />
<glyph unicode="\" horiz-adv-x="611" d="M141 731l430 -911h-101l-430 911h101z" />
<glyph unicode="]" horiz-adv-x="365" d="M285 731v-911h-235v77h134v757h-134v77h235z" />
<glyph unicode="^" horiz-adv-x="630" d="M315 595l-150 -192h-105l205 258h100l205 -258h-105z" />
<glyph unicode="_" horiz-adv-x="597" d="M0 -180v77h597v-77h-597z" />
<glyph unicode="`" horiz-adv-x="386" d="M298 579l-228 72l37 75l209 -99z" />
<glyph unicode="a" d="M60 144v33q0 69 42.5 106.5t118.5 37.5h189v89q0 44 -35 44h-261v77h225q77 0 124 -38t47 -106v-387h-100v61q-16 -40 -51.5 -50.5t-106.5 -10.5h-31q-76 0 -118.5 37.5t-42.5 106.5zM161 131q0 -30 10 -42t35 -12h164q21 0 29.5 8t10.5 27v132h-209q-22 -1 -31 -13.5 t-9 -40.5v-59z" />
<glyph unicode="b" d="M80 0v731h100v-261q16 40 51.5 50.5t106.5 10.5h31q76 0 118.5 -37.5t42.5 -106.5v-243q0 -69 -42.5 -106.5t-118.5 -37.5h-31q-71 0 -106.5 10.5t-51.5 50.5v-61h-100zM181 400v-288q2 -19 10.5 -27t29.5 -8h163q25 0 35 12t10 42v269q0 28 -9 40.5t-31 13.5h-168 q-22 -1 -31 -13.5t-9 -40.5z" />
<glyph unicode="c" horiz-adv-x="500" d="M161 131q0 -30 10 -42t35 -12h254v-77h-239q-76 0 -118.5 37.5t-42.5 106.5v243q0 69 42.5 106.5t118.5 37.5h239v-77h-254q-25 0 -35 -12t-10 -42v-269z" />
<glyph unicode="d" d="M510 731v-731h-100v61q-16 -40 -51.5 -50.5t-106.5 -10.5h-31q-76 0 -118.5 37.5t-42.5 106.5v243q0 69 42.5 106.5t118.5 37.5h31q71 0 106.5 -10.5t51.5 -50.5v261h100zM409 112v288q0 28 -9 40.5t-31 13.5h-168q-22 -1 -31 -13.5t-9 -40.5v-269q0 -30 10 -42t35 -12 h163q21 0 29.5 8t10.5 27z" />
<glyph unicode="e" horiz-adv-x="585" d="M525 228h-364v-107q0 -44 35 -44h329v-77h-294q-77 0 -124 38t-47 106v243q0 68 47 106t124 38h123q77 0 124 -38t47 -106v-159zM424 305v105q0 44 -35 44h-193q-35 0 -35 -44v-105h263z" />
<glyph unicode="f" horiz-adv-x="368" d="M40 531h80v55q0 145 168 145h40v-77h-62q-27 0 -36 -13.5t-9 -43.5v-66h97v-77h-97v-454h-101v454h-80v77z" />
<glyph unicode="g" d="M410 -67v128q-16 -40 -51.5 -50.5t-106.5 -10.5h-31q-76 0 -118.5 37.5t-42.5 106.5v243q0 69 42.5 106.5t118.5 37.5h31q71 0 106.5 -10.5t51.5 -50.5v61h100v-547q0 -81 -47 -122.5t-131 -41.5h-244v77h276q33 0 39 6q7 8 7 30zM409 112v288q0 28 -9 40.5t-31 13.5 h-168q-22 -1 -31 -13.5t-9 -40.5v-269q0 -30 10 -42t35 -12h163q21 0 29.5 8t10.5 27z" />
<glyph unicode="h" d="M80 0v731h100v-261q16 40 51.5 50.5t106.5 10.5h31q76 0 118.5 -37.5t42.5 -106.5v-387h-101v400q0 28 -9 40.5t-31 13.5h-168q-22 -1 -31 -13.5t-9 -40.5v-400h-101z" />
<glyph unicode="i" horiz-adv-x="281" d="M90 0v531h101v-531h-101zM80 620v111h121v-111h-121z" />
<glyph unicode="j" horiz-adv-x="271" d="M70 620v111h121v-111h-121zM80 -46v577h101v-566q0 -145 -168 -145h-40v77h62q27 0 36 13.5t9 43.5z" />
<glyph unicode="k" horiz-adv-x="589" d="M80 0v731h101v-420h64l173 220h113l-202 -246l210 -285h-116l-178 234h-64v-234h-101z" />
<glyph unicode="l" horiz-adv-x="261" d="M80 0v731h101v-731h-101z" />
<glyph unicode="m" horiz-adv-x="893" d="M80 0v531h100v-61q16 40 51.5 50.5t106.5 10.5h7q113 0 148 -77q16 46 59 61.5t112 15.5h8q76 0 118.5 -37.5t42.5 -106.5v-387h-101v400q0 28 -9 40.5t-31 13.5h-145q-22 -1 -31 -13.5t-9 -40.5v-400h-101v400q0 28 -9 40.5t-31 13.5h-145q-22 -1 -31 -13.5t-9 -40.5 v-400h-101z" />
<glyph unicode="n" d="M80 0v531h100v-61q16 40 51.5 50.5t106.5 10.5h31q76 0 118.5 -37.5t42.5 -106.5v-387h-101v400q0 28 -9 40.5t-31 13.5h-168q-22 -1 -31 -13.5t-9 -40.5v-400h-101z" />
<glyph unicode="o" horiz-adv-x="588" d="M528 387v-243q0 -69 -42.5 -106.5t-117.5 -37.5h-148q-75 0 -117.5 37.5t-42.5 106.5v243q0 69 42.5 106.5t117.5 37.5h148q75 0 117.5 -37.5t42.5 -106.5zM161 131q0 -30 10 -42t35 -12h176q25 0 35 12t10 42v269q0 30 -10 42t-35 12h-176q-25 0 -35 -12t-10 -42v-269z " />
<glyph unicode="p" d="M80 -180v711h100v-61q16 40 51.5 50.5t106.5 10.5h31q76 0 118.5 -37.5t42.5 -106.5v-243q0 -69 -42.5 -106.5t-118.5 -37.5h-31q-71 0 -106.5 10.5t-51.5 50.5v-241h-100zM181 400v-288q2 -19 10.5 -27t29.5 -8h163q25 0 35 12t10 42v269q0 28 -9 40.5t-31 13.5h-168 q-22 -1 -31 -13.5t-9 -40.5z" />
<glyph unicode="q" d="M510 531v-711h-100v241q-16 -40 -51.5 -50.5t-106.5 -10.5h-31q-76 0 -118.5 37.5t-42.5 106.5v243q0 69 42.5 106.5t118.5 37.5h31q71 0 106.5 -10.5t51.5 -50.5v61h100zM409 112v288q0 28 -9 40.5t-31 13.5h-168q-22 -1 -31 -13.5t-9 -40.5v-269q0 -30 10 -42t35 -12 h163q21 0 29.5 8t10.5 27z" />
<glyph unicode="r" horiz-adv-x="395" d="M181 400v-400h-101v531h100v-61q16 40 51.5 50.5t106.5 10.5h37v-77h-154q-22 -1 -31 -13.5t-9 -40.5z" />
<glyph unicode="s" horiz-adv-x="527" d="M376 105v98l-54 12t-69 16t-79 19q-66 15 -95 37t-29 65v35q0 69 42.5 106.5t118.5 37.5h248v-77h-263q-25 0 -35 -6t-10 -22v-90q49 -12 101 -25.5t88 -22.5q76 -18 106.5 -39.5t30.5 -66.5v-38q0 -69 -42.5 -106.5t-118.5 -37.5h-256v77h271q25 0 35 6t10 22z" />
<glyph unicode="t" horiz-adv-x="418" d="M378 454h-157v-320q0 -30 9 -43.5t36 -13.5h112v-77h-90q-168 0 -168 145v309h-80v77h80l30 130h71v-130h157v-77z" />
<glyph unicode="u" d="M221 0q-76 0 -118.5 37.5t-42.5 106.5v387h101v-400q0 -28 9 -40.5t31 -13.5h168q22 1 31 13.5t9 40.5v400h101v-531h-100v61q-16 -40 -51.5 -50.5t-106.5 -10.5h-31z" />
<glyph unicode="v" horiz-adv-x="549" d="M529 531l-189 -531h-131l-189 531h99l155 -455l156 455h99z" />
<glyph unicode="w" horiz-adv-x="779" d="M159 0l-139 531h99l105 -455l106 455h119l105 -455l106 455h99l-139 -531h-131l-100 455l-99 -455h-131z" />
<glyph unicode="x" horiz-adv-x="546" d="M354 265l172 -265h-118l-134 219l-146 -219h-108l175 265l-162 266h108l133 -221l137 221h108z" />
<glyph unicode="y" horiz-adv-x="549" d="M529 531l-253 -711h-82l38 114l-212 597h99l155 -455l156 455h99z" />
<glyph unicode="z" horiz-adv-x="511" d="M471 448l-323 -371h323v-77h-431v83h1l323 371h-307v77h414v-83z" />
<glyph unicode="{" horiz-adv-x="414" d="M86 225h-26v100h26q82 0 82 187q3 119 27 169t94 50h55v-77h-42q-28 0 -35 -51t-7 -156q0 -68 -35.5 -119t-79.5 -53q44 -2 79.5 -53.5t35.5 -118.5q0 -35 0.5 -55t1.5 -47.5t3.5 -43.5t7 -31.5t12 -22.5t17.5 -7h42v-77h-55q-70 0 -94 50t-27 169q0 187 -82 187z" />
<glyph unicode="|" horiz-adv-x="301" d="M100 -230v1011h101v-1011h-101z" />
<glyph unicode="}" horiz-adv-x="414" d="M354 225h-26q-82 0 -82 -187q-3 -119 -27 -169t-94 -50h-55v77h42q28 0 35 51t7 156q0 67 35.5 118.5t79.5 53.5q-44 2 -79.5 53t-35.5 119q0 35 -0.5 55t-1.5 47.5t-3.5 43.5t-7 31.5t-12 22.5t-17.5 7h-42v77h55q70 0 94 -50t27 -169q0 -187 82 -187h26v-100z" />
<glyph unicode="~" horiz-adv-x="579" d="M386 218q-49 0 -116.5 32t-87.5 32q-35 0 -54.5 -12t-34.5 -40l-43 24q28 57 64 78.5t82 21.5q48 0 114 -32.5t88 -32.5q34 0 53 12t35 41l43 -25q-28 -57 -63 -78t-80 -21z" />
<glyph unicode="&#xa2;" horiz-adv-x="510" d="M256 641h101v-110h113v-77h-264q-25 0 -35 -12t-10 -42v-269q0 -30 10 -42t35 -12h264v-77h-113v-110h-101v110h-35q-76 0 -118.5 37.5t-42.5 106.5v243q0 69 42.5 106.5t118.5 37.5h35v110z" />
<glyph unicode="&#xa3;" horiz-adv-x="654" d="M40 305v77h74v140q0 69 42 104t145 35h37q103 0 145 -35t42 -104v-44h-109v44q0 66 -53 66h-89q-53 0 -53 -63v-143h150v-77h-150v-67q0 -38 -20 -84.5t-53 -76.5h386v-77h-494v77q74 47 74 228h-74z" />
<glyph unicode="&#xa5;" horiz-adv-x="627" d="M10 661h118l185 -360l186 360h118l-158 -282h103v-77h-146l-30 -53h176v-77h-195v-172h-107v172h-195v77h175l-29 53h-146v77h103z" />
<glyph unicode="&#xa8;" horiz-adv-x="412" d="M60 620v111h121v-111h-121zM231 620v111h121v-111h-121z" />
<glyph unicode="&#xa9;" horiz-adv-x="743" d="M318 271q0 -30 10 -42t35 -12h140v-67h-135q-76 0 -108.5 27.5t-32.5 96.5v113q0 69 32.5 96.5t108.5 27.5h135v-67h-140q-25 0 -35 -12t-10 -42v-119zM683 491v-321q0 -82 -50 -126t-139 -44h-245q-89 0 -139 44t-50 126v321q0 82 50 126t139 44h245q89 0 139 -44 t50 -126zM167 148q0 -34 11.5 -48.5t41.5 -14.5h303q30 0 41.5 14.5t11.5 48.5v365q0 34 -11.5 48.5t-41.5 14.5h-303q-30 0 -41.5 -14.5t-11.5 -48.5v-365z" />
<glyph unicode="&#xab;" horiz-adv-x="460" d="M239 490l-77 -195l77 -195h-58l-121 195l121 195h58zM400 490l-77 -195l77 -195h-58l-121 195l121 195h58z" />
<glyph unicode="&#xad;" horiz-adv-x="481" d="M50 264v85h381v-85h-381z" />
<glyph unicode="&#xae;" horiz-adv-x="783" d="M476 288l55 -139h-81l-46 134h-76v-134h-71v362h182q92 0 92 -74v-85q0 -26 -15 -43t-40 -21zM328 454v-114h106q32 0 32 26v62q0 26 -32 26h-106zM703 491v-321q0 -82 -50 -126t-139 -44h-245q-89 0 -139 44t-50 126v321q0 82 50 126t139 44h245q89 0 139 -44t50 -126z M187 148q0 -34 11.5 -48.5t41.5 -14.5h303q30 0 41.5 14.5t11.5 48.5v365q0 34 -11.5 48.5t-41.5 14.5h-303q-30 0 -41.5 -14.5t-11.5 -48.5v-365z" />
<glyph unicode="&#xb4;" horiz-adv-x="386" d="M316 651l-228 -72l-18 48l209 99z" />
<glyph unicode="&#xb8;" horiz-adv-x="264" d="M149 -107q3 17 -5 28.5t-27 11.5h-60l12 67h60l-4 -29q53 0 77.5 -16.5t20.5 -61.5q-7 -90 -111 -90h-72l11 46h52q38 0 46 44z" />
<glyph unicode="&#xbb;" horiz-adv-x="460" d="M137 295l-77 195h58l121 -195l-121 -195h-58zM298 295l-77 195h58l121 -195l-121 -195h-58z" />
<glyph unicode="&#xc2;" horiz-adv-x="636" d="M10 0l239 661h137l240 -661h-108l-52 148h-297l-52 -148h-107zM318 570l-119 -337h238zM318 805l-120 -104h-75l145 150h100l145 -150h-75z" />
<glyph unicode="&#xc7;" horiz-adv-x="574" d="M302 -107q3 17 -5 28.5t-27 11.5h-60l12 67h38q-85 2 -132.5 46t-47.5 124v321q0 82 50 126t139 44h275v-85h-304q-30 0 -41.5 -14.5t-11.5 -48.5v-365q0 -34 11.5 -48.5t41.5 -14.5h304v-85h-262l-4 -29q53 0 77.5 -16.5t20.5 -61.5q-8 -90 -111 -90h-72l11 46h52 q38 0 46 44z" />
<glyph unicode="&#xce;" horiz-adv-x="267" d="M80 0v661h107v-661h-107zM133 805l-120 -104h-75l145 150h100l145 -150h-75z" />
<glyph unicode="&#xd6;" horiz-adv-x="673" d="M613 491v-321q0 -82 -50 -126t-139 -44h-175q-89 0 -139 44t-50 126v321q0 82 50 126t139 44h175q89 0 139 -44t50 -126zM167 148q0 -34 11.5 -48.5t41.5 -14.5h233q30 0 41.5 14.5t11.5 48.5v365q0 34 -11.5 48.5t-41.5 14.5h-233q-30 0 -41.5 -14.5t-11.5 -48.5v-365z M190 701v111h121v-111h-121zM361 701v111h121v-111h-121z" />
<glyph unicode="&#xdb;" horiz-adv-x="643" d="M50 180v481h107v-513q0 -63 63 -63h203q63 0 63 63v513h107v-481q0 -82 -55 -131t-144 -49h-145q-89 0 -144 49t-55 131zM321 805l-120 -104h-75l145 150h100l145 -150h-75z" />
<glyph unicode="&#xdc;" horiz-adv-x="643" d="M50 180v481h107v-513q0 -63 63 -63h203q63 0 63 63v513h107v-481q0 -82 -55 -131t-144 -49h-145q-89 0 -144 49t-55 131zM175 701v111h121v-111h-121zM346 701v111h121v-111h-121z" />
<glyph unicode="&#xe2;" d="M60 144v33q0 69 42.5 106.5t118.5 37.5h189v89q0 44 -35 44h-261v77h225q77 0 124 -38t47 -106v-387h-100v61q-16 -40 -51.5 -50.5t-106.5 -10.5h-31q-76 0 -118.5 37.5t-42.5 106.5zM161 131q0 -30 10 -42t35 -12h164q21 0 29.5 8t10.5 27v132h-209q-22 -1 -31 -13.5 t-9 -40.5v-59zM285 695l-120 -104h-75l145 150h100l145 -150h-75z" />
<glyph unicode="&#xe7;" horiz-adv-x="510" d="M320 -107q3 17 -5 28.5t-27 11.5h-60l12 67h-19q-76 0 -118.5 37.5t-42.5 106.5v243q0 69 42.5 106.5t118.5 37.5h239v-77h-254q-25 0 -35 -12t-10 -42v-269q0 -30 10 -42t35 -12h254v-77h-160l-4 -29q53 0 77.5 -16.5t20.5 -61.5q-8 -90 -111 -90h-72l11 46h52 q38 0 46 44z" />
<glyph unicode="&#xee;" horiz-adv-x="261" d="M80 0v531h101v-531h-101zM130 695l-120 -104h-75l145 150h100l145 -150h-75z" />
<glyph unicode="&#xf6;" horiz-adv-x="588" d="M528 387v-243q0 -69 -42.5 -106.5t-117.5 -37.5h-148q-75 0 -117.5 37.5t-42.5 106.5v243q0 69 42.5 106.5t117.5 37.5h148q75 0 117.5 -37.5t42.5 -106.5zM161 131q0 -30 10 -42t35 -12h176q25 0 35 12t10 42v269q0 30 -10 42t-35 12h-176q-25 0 -35 -12t-10 -42v-269z M148 591v111h121v-111h-121zM319 591v111h121v-111h-121z" />
<glyph unicode="&#xfb;" d="M221 0q-76 0 -118.5 37.5t-42.5 106.5v387h101v-400q0 -28 9 -40.5t31 -13.5h168q22 1 31 13.5t9 40.5v400h101v-531h-100v61q-16 -40 -51.5 -50.5t-106.5 -10.5h-31zM285 695l-120 -104h-75l145 150h100l145 -150h-75z" />
<glyph unicode="&#xfc;" d="M221 0q-76 0 -118.5 37.5t-42.5 106.5v387h101v-400q0 -28 9 -40.5t31 -13.5h168q22 1 31 13.5t9 40.5v400h101v-531h-100v61q-16 -40 -51.5 -50.5t-106.5 -10.5h-31zM139 591v111h121v-111h-121zM310 591v111h121v-111h-121z" />
<glyph unicode="&#x11e;" horiz-adv-x="654" d="M177 148q0 -34 11.5 -48.5t41.5 -14.5h257v266h107v-351h-335q-89 0 -139 44t-50 126v321q0 82 50 126t139 44h335v-85h-364q-30 0 -41.5 -14.5t-11.5 -48.5v-365zM347 701h-31q-72 2 -117 34t-45 88h85q0 -22 21 -44t72 -22t72 22t21 44h85q0 -56 -45.5 -88t-117.5 -34z " />
<glyph unicode="&#x11f;" d="M410 -67v128q-16 -40 -51.5 -50.5t-106.5 -10.5h-31q-76 0 -118.5 37.5t-42.5 106.5v243q0 69 42.5 106.5t118.5 37.5h31q71 0 106.5 -10.5t51.5 -50.5v61h100v-547q0 -81 -47 -122.5t-131 -41.5h-244v77h276q33 0 39 6q7 8 7 30zM409 112v288q0 28 -9 40.5t-31 13.5 h-168q-22 -1 -31 -13.5t-9 -40.5v-269q0 -30 10 -42t35 -12h163q21 0 29.5 8t10.5 27zM300 591h-31q-72 2 -117 34t-45 88h85q0 -22 21 -44t72 -22t72 22t21 44h85q0 -56 -45.5 -88t-117.5 -34z" />
<glyph unicode="&#x130;" horiz-adv-x="261" d="M77 0v661h107v-661h-107zM70 701v111h121v-111h-121z" />
<glyph unicode="&#x131;" horiz-adv-x="261" d="M80 0v531h101v-531h-101z" />
<glyph unicode="&#x15e;" horiz-adv-x="619" d="M324 -107q3 17 -5 28.5t-27 11.5h-60l12 67h-181v85h343q31 0 43.5 7.5t12.5 27.5v147l-295 39q-56 7 -86.5 49.5t-30.5 98.5v27q0 87 53 133.5t148 46.5h285v-85h-323q-31 0 -43.5 -7.5t-12.5 -27.5v-141l295 -41q117 -16 117 -152v-27q0 -87 -53 -133.5t-148 -46.5h-64 l-4 -29q53 0 77.5 -16.5t20.5 -61.5q-8 -90 -111 -90h-72l11 46h52q38 0 46 44z" />
<glyph unicode="&#x15f;" horiz-adv-x="527" d="M278 -107q3 17 -5 28.5t-27 11.5h-60l12 67h-138v77h271q25 0 35 6t10 22v98l-54 12t-69 16t-79 19q-66 15 -95 37t-29 65v35q0 69 42.5 106.5t118.5 37.5h248v-77h-263q-25 0 -35 -6t-10 -22v-90q49 -12 101 -25.5t88 -22.5q76 -18 106.5 -39.5t30.5 -66.5v-38 q0 -69 -42.5 -106.5t-118.5 -37.5h-58l-4 -29q53 0 77.5 -16.5t20.5 -61.5q-8 -90 -111 -90h-72l11 46h52q38 0 46 44z" />
<glyph unicode="&#x2c6;" horiz-adv-x="490" d="M245 685l-120 -104h-75l145 150h100l145 -150h-75z" />
<glyph unicode="&#x2da;" horiz-adv-x="312" d="M156 737q96 0 96 -82t-96 -82t-96 82t96 82zM156 622q17 0 27 9t10 24q0 33 -37 33t-37 -33q0 -15 10 -24t27 -9z" />
<glyph unicode="&#x2dc;" horiz-adv-x="510" d="M347 596q-38 0 -73.5 16t-63.5 32t-48 16q-26 0 -41 -12.5t-28 -39.5l-43 24q22 53 50 76.5t66 23.5q48 0 104.5 -32.5t78.5 -32.5q26 0 40.5 12.5t27.5 40.5l43 -25q-41 -99 -113 -99z" />
<glyph unicode="&#x2000;" horiz-adv-x="425" />
<glyph unicode="&#x2001;" horiz-adv-x="851" />
<glyph unicode="&#x2002;" horiz-adv-x="425" />
<glyph unicode="&#x2003;" horiz-adv-x="851" />
<glyph unicode="&#x2004;" horiz-adv-x="283" />
<glyph unicode="&#x2005;" horiz-adv-x="212" />
<glyph unicode="&#x2006;" horiz-adv-x="141" />
<glyph unicode="&#x2007;" horiz-adv-x="141" />
<glyph unicode="&#x2008;" horiz-adv-x="106" />
<glyph unicode="&#x2009;" horiz-adv-x="170" />
<glyph unicode="&#x200a;" horiz-adv-x="47" />
<glyph unicode="&#x2010;" horiz-adv-x="481" d="M50 264v85h381v-85h-381z" />
<glyph unicode="&#x2011;" horiz-adv-x="481" d="M50 264v85h381v-85h-381z" />
<glyph unicode="&#x2012;" horiz-adv-x="481" d="M50 264v85h381v-85h-381z" />
<glyph unicode="&#x2013;" horiz-adv-x="667" d="M50 264v85h567v-85h-567z" />
<glyph unicode="&#x2014;" horiz-adv-x="993" d="M50 264v85h893v-85h-893z" />
<glyph unicode="&#x2018;" horiz-adv-x="311" d="M171 681v-111l50 -129h-61l-110 129v111h121z" />
<glyph unicode="&#x2019;" horiz-adv-x="271" d="M100 571v111h121v-111l-110 -129h-61z" />
<glyph unicode="&#x201a;" horiz-adv-x="271" d="M100 0v111h121v-111l-110 -129h-61z" />
<glyph unicode="&#x201c;" horiz-adv-x="458" d="M191 553v-111h-121v111l110 129h61zM378 553v-111h-121v111l110 129h61z" />
<glyph unicode="&#x201d;" horiz-adv-x="458" d="M80 571v111h121v-111l-110 -129h-61zM267 571v111h121v-111l-110 -129h-61z" />
<glyph unicode="&#x201e;" horiz-adv-x="488" d="M100 0v111h121v-111l-110 -129h-61zM317 0v111h121v-111l-110 -129h-61z" />
<glyph unicode="&#x2026;" horiz-adv-x="623" d="M50 0v111h121v-111h-121zM251 0v111h121v-111h-121zM452 0v111h121v-111h-121z" />
<glyph unicode="&#x202f;" horiz-adv-x="170" />
<glyph unicode="&#x2039;" horiz-adv-x="299" d="M239 490l-77 -195l77 -195h-58l-121 195l121 195h58z" />
<glyph unicode="&#x203a;" horiz-adv-x="299" d="M137 295l-77 195h58l121 -195l-121 -195h-58z" />
<glyph unicode="&#x205f;" horiz-adv-x="212" />
<glyph unicode="&#x20ac;" horiz-adv-x="627" d="M50 369v60h93v62q0 82 50 126t139 44h234q-2 -8 -15 -37.5t-19 -47.5h-229q-30 0 -41.5 -14.5t-11.5 -48.5v-84h237l-21 -60h-216v-49h208l-22 -60h-186v-112q0 -34 11.5 -48.5t41.5 -14.5h274v-85h-245q-89 0 -139 44t-50 126v90h-93v60h93v49h-93z" />
<glyph unicode="&#x2122;" horiz-adv-x="938" d="M531 386l-90 257v-257h-77v345h123l93 -266l85 266h113v-345h-78v257l-89 -257h-80zM50 663v68h276v-68h-102v-277h-72v277h-102z" />
</font>
</defs>
</svg>
