<?xml version="1.0" encoding="UTF-8" standalone="no"?>
<!DOCTYPE svg  PUBLIC '-//W3C//DTD SVG 1.1//EN'  'http://www.w3.org/Graphics/SVG/1.1/DTD/svg11.dtd'>
<svg xmlns="http://www.w3.org/2000/svg">
<defs>
<font id="Exo2.0-Bold" horiz-adv-x="590">
<font-face underline-position="-50" font-weight="700" descent="-200" panose-1="0 0 8 0 0 0 0 0 0 0" units-per-em="1000" unicode-range="U+0020-FB02" bbox="-175 -292 1268 949" x-height="493" underline-thickness="50" font-family="Exo2.0" ascent="800" cap-height="690"/>
<missing-glyph horiz-adv-x="600"/>
<glyph glyph-name="fi" horiz-adv-x="667" unicode="fi" d="M495 715h65q44 0 44 -43v-54q0 -43 -44 -43h-65q-43 0 -43 43v54q0 43 43 43zM602 493v-493h-148v394h-201v-394h-148v394h-86v94l86 5v66q0 161 162 161q82 0 132 -10v-98h-80q-37 0 -51.5 -16t-14.5 -56v-47h349z"/>
<glyph glyph-name="fl" horiz-adv-x="721" unicode="fl" d="M699 102l17 -94q-37 -20 -115 -20q-65 0 -102 34t-37 94v498h-145q-37 0 -51 -16.5t-14 -57.5v-47h124v-99h-124v-394h-148v394h-86v94l86 5v66q0 161 158 161h3h19q229 0 325 -18v-549q0 -51 53 -51h37z"/>
<glyph glyph-name="f_f" horiz-adv-x="758" unicode="ff" d="M767 612h-95q-37 0 -52 -14.5t-15 -49.5v-55h138v-99h-138v-394h-145v394h-209v-394h-146v394h-86v94l86 5v65q3 152 161 152q92 0 140 -10l-14 -98h-75q-38 0 -52 -13t-14 -51v-45h209v75q0 152 161 152q104 0 159 -10z"/>
<glyph glyph-name="f_f_i" horiz-adv-x="1013" unicode="ffi" d="M842 715h65q43 0 43 -43v-54q0 -43 -43 -43h-65q-43 0 -43 43v54q0 43 43 43zM949 493v-493h-148v394h-202v-394h-144v394h-211v-394h-145v394h-80v94l80 5v65q2 152 161 152q93 0 139 -10l-13 -98h-75q-38 0 -52.5 -13t-14.5 -51v-45h211v66q0 161 161 161q80 0 130 -10 v-98h-77q-40 0 -55 -15.5t-15 -56.5v-47h350z"/>
<glyph glyph-name="f_f_l" horiz-adv-x="1077" unicode="ffl" d="M1056 102l16 -94q-37 -20 -115 -20q-65 0 -102 34t-37 94v498h-147q-35 0 -50.5 -16.5t-15.5 -57.5v-47h128v-99h-128v-394h-145v394h-209v-394h-146v394h-86v94l86 5v65q3 152 161 152q92 0 140 -10l-14 -98h-75q-38 0 -52 -13t-14 -51v-45h209v66q0 161 158 161h3h19 q229 0 326 -18v-549q0 -51 52 -51h38z"/>
<glyph glyph-name=".notdef" horiz-adv-x="600"/>
<glyph glyph-name=".null" horiz-adv-x="0"/>
<glyph glyph-name="nonmarkingreturn" horiz-adv-x="333"/>
<glyph glyph-name="space" horiz-adv-x="217" unicode=" "/>
<glyph glyph-name="exclam" horiz-adv-x="300" unicode="!" d="M133 151h34q29 0 40.5 -11t11.5 -40v-48q0 -29 -11.5 -40.5t-40.5 -11.5h-34q-29 0 -40.5 11.5t-11.5 40.5v48q0 29 11.5 40t40.5 11zM223 425l-15 -206h-116l-16 206v270h147v-270z"/>
<glyph glyph-name="quotedbl" horiz-adv-x="375" unicode='&quot;' d="M314 469h-91l-9 221h109zM152 469h-91l-8 221h108z"/>
<glyph glyph-name="numbersign" horiz-adv-x="710" unicode="#" d="M439 426h-139l-24 -140h139zM551 426l-24 -140h109l-17 -89h-108l-34 -197h-112l34 197h-139l-34 -197h-112l34 197h-116l17 89h115l24 140h-114l17 88h113l30 176h112l-31 -176h140l30 176h112l-31 -176h112l-17 -88h-110z"/>
<glyph glyph-name="dollar" horiz-adv-x="577" unicode="$" d="M268 434l128 -45q79 -28 111.5 -76.5t32.5 -126.5q0 -110 -50.5 -153t-176.5 -45l-10 -108h-111l10 111q-69 5 -150 22l10 112q167 -4 225 -4q60 0 80.5 12.5t20.5 51.5q0 35 -14 49.5t-52 26.5l-136 49q-76 28 -108.5 76t-32.5 126q0 76 24.5 117.5t73 57t135.5 16.5 l9 90h111l-10 -94q72 -7 129 -23l-9 -104q-87 3 -214 3q-59 0 -79 -10.5t-20 -52.5q0 -34 15.5 -49t57.5 -29z"/>
<glyph glyph-name="percent" horiz-adv-x="907" unicode="%" d="M701 316q-36 0 -48.5 -22t-12.5 -90v-10v-10q0 -68 12.5 -90.5t48.5 -22.5q37 0 49.5 24t12.5 99q0 74 -12.5 98t-49.5 24zM701 399q96 0 134 -45.5t38 -159.5q0 -115 -38 -160.5t-134 -45.5q-95 0 -132.5 45.5t-37.5 160.5q0 114 37.5 159.5t132.5 45.5zM204 621 q-36 0 -48.5 -24.5t-12.5 -98.5q0 -75 12.5 -99t48.5 -24q38 0 50.5 24t12.5 99t-12.5 99t-50.5 24zM293 0h-95l414 690h94zM205 703q96 0 134 -45t38 -160q0 -114 -38 -159.5t-134 -45.5q-95 0 -133 45.5t-38 159.5q0 115 38 160t133 45z"/>
<glyph glyph-name="ampersand" horiz-adv-x="765" unicode="&amp;" d="M466 304h-155q-58 0 -78.5 -20.5t-20.5 -78.5q0 -57 18 -76t73 -19q99 2 163 45v149zM715 108l16 -100q-52 -20 -127 -20q-99 0 -128 73q-41 -39 -90.5 -56t-125.5 -17q-113 0 -161 42t-48 145q0 83 31.5 129t104.5 52v4q-61 6 -88 45t-27 116q0 60 14 96t49.5 54.5 t80.5 24.5t124 6q98 0 163 -12l-18 -105q-102 3 -149 3q-66 0 -88 -17t-22 -73q0 -53 19.5 -72t73.5 -19h152l10 106h124v-106h107v-103h-107v-145q0 -29 10.5 -40t37.5 -11h62z"/>
<glyph glyph-name="quotesingle" horiz-adv-x="213" unicode="&apos;" d="M152 469h-91l-8 221h108z"/>
<glyph glyph-name="parenleft" horiz-adv-x="365" unicode="(" d="M329 790l17 -64q-164 -75 -164 -413q0 -333 164 -414l-17 -64q-150 48 -220 163.5t-70 313.5q0 199 70 315t220 163z"/>
<glyph glyph-name="parenright" horiz-adv-x="365" unicode=")" d="M19 726l17 64q150 -47 220 -163t70 -315q0 -198 -70 -313.5t-220 -163.5l-17 64q164 81 164 414q0 338 -164 413z"/>
<glyph glyph-name="asterisk" horiz-adv-x="452" unicode="*" d="M179 563v-36l-18 -22l-123 29l25 78zM414 534l-122 -29l-19 22v36l116 49zM255 524l106 -129l-65 -49l-70 122l-70 -121l-66 48l107 128l-12 168h82z"/>
<glyph glyph-name="plus" horiz-adv-x="539" unicode="+" d="M497 247h-173v-167h-109v167h-173v108h172v168h110v-168h173v-108z"/>
<glyph glyph-name="comma" horiz-adv-x="243" unicode="," d="M104 151h35q29 0 40 -11t11 -40v-64q0 -100 -51 -183l-61 19q14 59 14 128q-40 0 -42 46l1 54q1 29 12.5 40t40.5 11z"/>
<glyph glyph-name="hyphen" horiz-adv-x="414" unicode="-" d="M356 206h-298v97h298v-97z"/>
<glyph glyph-name="period" horiz-adv-x="246" unicode="." d="M103 151h40q29 0 40.5 -11t11.5 -40v-48q0 -29 -11.5 -40.5t-40.5 -11.5h-40q-29 0 -40.5 11.5t-11.5 40.5v48q0 29 11.5 40t40.5 11z"/>
<glyph glyph-name="slash" horiz-adv-x="550" unicode="/" d="M137 -72h-117l393 762h117z"/>
<glyph glyph-name="zero" horiz-adv-x="629" unicode="0" d="M313 582q-67 0 -90.5 -48.5t-23.5 -188.5t23.5 -188.5t90.5 -48.5q69 0 93 48.5t24 188.5t-24 188.5t-93 48.5zM314 703q148 0 207 -80t59 -278t-59 -278t-207 -80q-147 0 -206 80t-59 278t59 278t206 80z"/>
<glyph glyph-name="one" horiz-adv-x="429" unicode="1" d="M336 0h-152v486q0 44 6 75l-161 -42l-18 102l173 69h152v-690z"/>
<glyph glyph-name="two" horiz-adv-x="578" unicode="2" d="M57 563l-6 115q116 24 232 24t173.5 -34t57.5 -126q0 -62 -22.5 -109.5t-89.5 -118.5l-177 -184q38 7 102 7h207v-137h-489v85q0 39 22 62l169 182q123 128 123 195q0 30 -21 39t-73 9q-106 0 -208 -9z"/>
<glyph glyph-name="three" horiz-adv-x="566" unicode="3" d="M61 575l-7 110q111 18 217 18q123 0 174 -35t51 -125q0 -78 -23 -121t-82 -53v-4q67 -11 94.5 -52.5t28.5 -120.5v-7q0 -105 -54 -151.5t-182 -46.5q-102 0 -237 18l6 114q112 -7 190 -7q73 0 100 20.5t27 79.5q0 50 -21 72.5t-81 22.5h-4h-129v104h129q57 0 75.5 20.5 t18.5 63.5v8q0 49 -21 62.5t-86 13.5q-86 0 -184 -4z"/>
<glyph glyph-name="four" horiz-adv-x="636" unicode="4" d="M605 260v-94l-84 -14h-2v-152h-141v152h-273q-35 0 -57.5 23t-22.5 55q0 17 7 34l179 426h144l-164 -397q-4 -8 -4 -15q0 -18 24 -18h167v186l25 110h116v-296h86z"/>
<glyph glyph-name="five" horiz-adv-x="551" unicode="5" d="M483 572h-283l-8 -125l99 -12q119 -13 168.5 -69t49.5 -155q0 -223 -241 -223q-100 0 -230 22l14 118q111 -12 178 -12q75 0 100.5 22t27.5 76v11q0 55 -32 71t-129 25l-84 10q-22 2 -35.5 18t-12.5 38l17 303h406z"/>
<glyph glyph-name="six" horiz-adv-x="588" unicode="6" d="M307 105q63 0 80 27.5t17 100.5q0 65 -19.5 88t-77.5 23q-54 0 -109 -36q1 -130 19 -166.5t90 -36.5zM502 684l-8 -100q-52 2 -155 2q-78 0 -106.5 -34t-33.5 -147q55 50 152 50q112 0 154.5 -49.5t42.5 -169.5q0 -64 -10 -107t-35.5 -76.5t-74 -49t-122.5 -15.5 q-104 0 -157.5 30.5t-75.5 104t-22 215.5q0 94 12 159t33.5 105t59 62.5t79.5 30t104 7.5q98 0 163 -18z"/>
<glyph glyph-name="seven" horiz-adv-x="526" unicode="7" d="M27 690h414q30 0 48 -15.5t18 -40.5q0 -10 -5 -25l-209 -609h-150l175 500q12 37 29 65h-314z"/>
<glyph glyph-name="eight" horiz-adv-x="619" unicode="8" d="M312 305q-70 0 -93 -20.5t-23 -81.5q0 -58 23 -78t92 -20q67 0 89 20t22 78q0 62 -21.5 82t-88.5 20zM311 593q-63 0 -83.5 -18.5t-20.5 -74.5q0 -53 21 -71t84 -18q62 0 81 17.5t19 71.5q0 56 -19.5 74.5t-81.5 18.5zM172 356v4q-52 6 -77 49.5t-25 108.5 q0 101 49.5 142.5t190.5 41.5t190.5 -41.5t49.5 -142.5q0 -65 -25.5 -108.5t-76.5 -49.5v-4q66 -6 92 -54t26 -130q0 -101 -53 -142.5t-203 -42.5h-5q-146 0 -199 42.5t-53 142.5q0 173 119 184z"/>
<glyph glyph-name="nine" horiz-adv-x="588" unicode="9" d="M185 457v-5q0 -58 20.5 -82.5t74.5 -24.5q52 0 109 38q0 129 -17.5 166t-87.5 37q-60 0 -79.5 -27t-19.5 -93v-9zM71 6l9 101q56 -2 167 -2q78 0 107.5 37.5t33.5 144.5q-56 -52 -153 -52q-106 0 -149.5 58.5t-43.5 164.5q0 130 54.5 187t188.5 57q65 0 107.5 -10.5 t71.5 -33t44 -65.5t21 -98.5t6 -142.5q0 -116 -14.5 -187t-51.5 -110.5t-87.5 -53t-133.5 -13.5q-104 0 -177 18z"/>
<glyph glyph-name="colon" horiz-adv-x="259" unicode=":" d="M104 152h40q29 0 40.5 -11.5t11.5 -40.5v-48q0 -29 -11.5 -40.5t-40.5 -11.5h-40q-29 0 -40.5 11.5t-11.5 40.5v48q0 29 11.5 40.5t40.5 11.5zM104 451h40q29 0 40.5 -11.5t11.5 -40.5v-48q0 -29 -11.5 -40t-40.5 -11h-40q-29 0 -40.5 11t-11.5 40v48q0 29 11.5 40.5 t40.5 11.5z"/>
<glyph glyph-name="semicolon" horiz-adv-x="259" unicode=";" d="M112 151h35q29 0 40 -11t12 -40v-64q-1 -101 -52 -183l-61 19q13 51 15 128q-41 0 -43 46l2 54q1 29 12.5 40t39.5 11zM111 451h40q29 0 40.5 -11.5t11.5 -40.5v-48q0 -29 -11.5 -40t-40.5 -11h-40q-29 0 -40.5 11t-11.5 40v48q0 29 11.5 40.5t40.5 11.5z"/>
<glyph glyph-name="less" horiz-adv-x="518" unicode="&lt;" d="M460 408l-295 -107l295 -107v-115l-420 165v114l420 165v-115z"/>
<glyph glyph-name="equal" horiz-adv-x="579" unicode="=" d="M519 138h-459v105h459v-105zM519 351h-459v105h459v-105z"/>
<glyph glyph-name="greater" horiz-adv-x="517" unicode="&gt;" d="M477 358v-114l-420 -165v115l295 107l-295 107v115z"/>
<glyph glyph-name="question" horiz-adv-x="516" unicode="?" d="M228 151h35q29 0 40.5 -11t11.5 -40v-48q0 -29 -11.5 -40.5t-40.5 -11.5h-35q-29 0 -40.5 11.5t-11.5 40.5v48q0 29 11.5 40t40.5 11zM36 587l-5 101q11 2 40.5 7.5t41.5 7t38 4.5t54.5 4t66.5 1q108 0 161 -38t53 -117q0 -40 -17.5 -74.5t-42.5 -60.5t-51 -53t-46 -65.5 t-23 -84.5h-120v12q0 46 14 86t34.5 68t41.5 52t36 47t17 44v8q0 56 -92 56q-88 0 -201 -5z"/>
<glyph glyph-name="at" horiz-adv-x="756" unicode="@" d="M562 334l-121 -4q-26 -1 -36.5 -10.5t-10.5 -30.5v-16q0 -46 48 -46q70 0 120 44v63zM373 601h152q87 0 130.5 -38.5t43.5 -127.5v-300h-109l-13 69q-28 -32 -74.5 -56t-100.5 -24q-62 0 -101.5 33t-39.5 93v48q0 52 33 81t94 29h174v25q0 34 -14.5 46t-52.5 12h-122 q-47 0 -69.5 -1t-47 -9t-33.5 -20t-18 -39t-10.5 -61.5t-1.5 -92.5q0 -45 1 -74t6.5 -55t9.5 -40.5t19 -26.5t25.5 -17t38.5 -8t48.5 -3.5t64.5 -0.5h10h282v-99q-173 -13 -281 -13h-11q-83 0 -135 4t-94.5 19t-63.5 35t-35 62t-17.5 90t-3.5 127t3 126.5t16 88.5t32 61 t57 34.5t85 18.5t123 4z"/>
<glyph glyph-name="A" horiz-adv-x="650" unicode="A" d="M411 299l-58 211q-12 50 -14 65h-27q-2 -10 -7 -32t-8 -33l-58 -211h172zM444 181h-237l-50 -181h-156l199 650q4 18 19 29t34 11h144q43 0 53 -40l199 -650h-155z"/>
<glyph glyph-name="B" horiz-adv-x="637" unicode="B" d="M219 107h116q63 0 85 18.5t22 75.5q0 62 -23 83.5t-88 22.5h-112v-200zM219 408h111q56 0 76.5 18t20.5 71q0 52 -22 69t-83 17l-103 1v-176zM452 360v-4q77 -7 110 -52.5t33 -131.5q0 -104 -53 -142t-181 -38q-192 0 -291 8v690q89 8 259 8q138 0 191 -37.5t53 -142.5 q0 -75 -28.5 -113.5t-92.5 -44.5z"/>
<glyph glyph-name="C" horiz-adv-x="586" unicode="C" d="M545 129l13 -113q-90 -28 -221 -28q-160 0 -225 80t-65 277t65 277t225 80q116 0 207 -23l-13 -114q-81 5 -194 5q-75 0 -102.5 -47.5t-27.5 -177.5t27.5 -177.5t102.5 -47.5q139 0 208 9z"/>
<glyph glyph-name="D" horiz-adv-x="680" unicode="D" d="M222 579v-467q17 0 55.5 -0.5t60.5 -0.5q77 0 105.5 49t28.5 185t-28.5 185.5t-105.5 49.5zM70 0v690q142 9 268 9q165 0 229.5 -76t64.5 -278t-64.5 -278t-229.5 -76q-126 0 -268 9z"/>
<glyph glyph-name="E" horiz-adv-x="576" unicode="E" d="M529 119l7 -112q-94 -10 -320 -10q-69 0 -110 37.5t-42 101.5v418q1 64 42 101.5t110 37.5q226 0 320 -10l-7 -113h-265q-25 0 -36 -12t-11 -39v-105h275v-110h-275v-133q0 -28 11 -40t36 -12h265z"/>
<glyph glyph-name="F" horiz-adv-x="554" unicode="F" d="M522 570h-247q-29 0 -41.5 -12t-12.5 -39v-118h264v-111h-264v-290h-153v550q0 66 41.5 104.5t110.5 38.5q220 0 310 -11z"/>
<glyph glyph-name="G" horiz-adv-x="645" unicode="G" d="M592 398v-398h-112l-14 69q-80 -82 -199 -82q-116 0 -168 85t-52 275q0 202 68.5 279t240.5 77q125 0 212 -24l-12 -112q-113 5 -195 5q-46 0 -72.5 -7.5t-46.5 -32.5t-27 -69.5t-7 -120.5q0 -129 24 -177t89 -48q60 0 124 35v246h147z"/>
<glyph glyph-name="H" horiz-adv-x="688" unicode="H" d="M618 690v-690h-152v308h-244v-308h-152v690h152v-264h244v264h152z"/>
<glyph glyph-name="I" horiz-adv-x="292" unicode="I" d="M222 0h-152v690h152v-690z"/>
<glyph glyph-name="J" horiz-adv-x="369" unicode="J" d="M302 690v-545q0 -75 -41 -116t-115 -41q-83 0 -126 20l17 102h47q66 0 66 53v527h152z"/>
<glyph glyph-name="K" horiz-adv-x="631" unicode="K" d="M274 304h-59q7 -40 7 -66v-238h-152v690h152v-195q0 -44 -7 -82h59l175 277h165l-178 -275q-17 -30 -50 -55v-4q36 -25 58 -61l182 -295h-170z"/>
<glyph glyph-name="L" horiz-adv-x="532" unicode="L" d="M220 690v-515q0 -27 12.5 -39t41.5 -12h237l7 -116q-101 -11 -292 -11q-80 0 -119 40t-39 107v546h152z"/>
<glyph glyph-name="M" horiz-adv-x="911" unicode="M" d="M624 690h147q55 0 57 -57l27 -633h-144l-23 571h-17l-104 -427q-10 -49 -62 -49h-100q-52 0 -62 49l-105 427h-17l-20 -571h-144l25 633q3 57 57 57h147q49 0 60 -49l84 -344q8 -33 18 -97h13q1 5 7.5 41t10.5 56l83 344q12 49 62 49z"/>
<glyph glyph-name="N" horiz-adv-x="722" unicode="N" d="M652 690v-635q0 -55 -54 -55h-95q-23 0 -36 10.5t-25 34.5l-181 368q-34 73 -42 107h-11q7 -50 7 -110v-410h-145v635q0 55 55 55h93q23 0 36 -10.5t25 -34.5l175 -357q25 -50 50 -111h10q-6 78 -6 116v397h144z"/>
<glyph glyph-name="O" horiz-adv-x="684" unicode="O" d="M342 580q-78 0 -106.5 -49t-28.5 -186t28.5 -186t106.5 -49t106.5 49t28.5 186t-28.5 186t-106.5 49zM342 703q166 0 231 -76.5t65 -281.5t-65 -281.5t-231 -76.5t-230.5 76.5t-64.5 281.5t64.5 281.5t230.5 76.5z"/>
<glyph glyph-name="P" horiz-adv-x="614" unicode="P" d="M222 365h107q59 1 80.5 23t21.5 86t-21.5 86t-80.5 22l-107 -1v-216zM70 0v690q93 9 262 9q145 0 198.5 -47t53.5 -178t-50.5 -178.5t-181.5 -47.5q-66 0 -130 8v-256h-152z"/>
<glyph glyph-name="Q" horiz-adv-x="686" unicode="Q" d="M257 -116l36 81q120 -42 300 -68l-43 -136q-150 37 -293 123zM343 580q-78 0 -106.5 -49t-28.5 -186t28.5 -186t106.5 -49t106.5 49t28.5 186t-28.5 186t-106.5 49zM343 703q166 0 230.5 -76.5t64.5 -281.5t-64.5 -281.5t-230.5 -76.5t-231 76.5t-65 281.5t65 281.5 t231 76.5z"/>
<glyph glyph-name="R" horiz-adv-x="643" unicode="R" d="M220 387h110q60 0 82 20.5t22 77.5t-21.5 77t-82.5 20l-110 -1v-194zM614 0h-161l-52 211q-10 33 -26.5 45.5t-47.5 12.5l-107 1v-270h-150v690q93 9 263 9q139 0 197 -44t58 -160q0 -76 -30.5 -119t-101.5 -52v-5q79 -18 98 -104z"/>
<glyph glyph-name="S" horiz-adv-x="582" unicode="S" d="M325 261l-139 49q-77 28 -110 76t-33 126q0 114 55.5 152.5t195.5 38.5q132 0 227 -27l-10 -104q-87 3 -216 3q-60 0 -80 -10.5t-20 -52.5q0 -34 15 -49t57 -29l131 -45q80 -28 113 -76.5t33 -126.5q0 -116 -56 -157.5t-200 -41.5q-117 0 -237 26l9 110q213 -5 228 -5 q61 0 81.5 13t20.5 54q0 35 -14 49.5t-51 26.5z"/>
<glyph glyph-name="T" horiz-adv-x="601" unicode="T" d="M583 566h-206v-566h-153v566h-206v124h565v-124z"/>
<glyph glyph-name="U" horiz-adv-x="681" unicode="U" d="M617 690v-415q0 -158 -60.5 -223t-208.5 -65q-156 0 -219.5 65t-63.5 223v415h152v-415q0 -95 26.5 -130t97.5 -35q70 0 96.5 35t26.5 130v415h153z"/>
<glyph glyph-name="V" horiz-adv-x="636" unicode="V" d="M629 690l-187 -648q-5 -19 -19.5 -30.5t-34.5 -11.5h-139q-20 0 -34.5 11.5t-19.5 30.5l-188 648h157l125 -498q10 -40 17 -77h25q3 19 17 77l124 498h157z"/>
<glyph glyph-name="W" horiz-adv-x="973" unicode="W" d="M947 690l-109 -648q-4 -19 -19 -30.5t-36 -11.5h-146q-21 0 -36 12t-18 31l-75 451q-8 44 -12 87h-19q0 -3 -4.5 -37t-7.5 -51l-74 -450q-3 -19 -18.5 -31t-36.5 -12h-146q-20 0 -35.5 11.5t-19.5 30.5l-109 648h156l67 -479q6 -45 9 -100h20q3 28 15 100l74 432 q3 21 17.5 34t36.5 13h132q21 0 35.5 -13t17.5 -34l74 -433q12 -74 14 -99h21q4 57 9 98l68 481h155z"/>
<glyph glyph-name="X" horiz-adv-x="641" unicode="X" d="M326 307h-12l-147 -307h-157l180 354l-166 336h156l133 -285h15l133 285h156l-166 -336l180 -354h-158z"/>
<glyph glyph-name="Y" horiz-adv-x="608" unicode="Y" d="M381 228v-228h-153v228l-228 462h159l115 -253q10 -22 26 -87h10q12 54 25 87l115 253h157z"/>
<glyph glyph-name="Z" horiz-adv-x="583" unicode="Z" d="M544 117v-117h-504v117l328 456h-320v117h488v-117l-328 -456h336z"/>
<glyph glyph-name="bracketleft" horiz-adv-x="346" unicode="[" d="M313 676h-80q-19 0 -19 -19v-711q0 -19 19 -19h80v-92h-160q-77 0 -77 77v779q0 34 21.5 55.5t55.5 21.5h160v-92z"/>
<glyph glyph-name="backslash" horiz-adv-x="551" unicode="\" d="M531 -72h-118l-393 762h118z"/>
<glyph glyph-name="bracketright" horiz-adv-x="346" unicode="]" d="M33 768h159q34 0 56 -21.5t22 -55.5v-779q0 -34 -22 -55.5t-56 -21.5h-159v92h80q19 0 19 19v711q0 19 -19 19h-80v92z"/>
<glyph glyph-name="asciicircum" horiz-adv-x="462" unicode="^" d="M432 402l-58 -32l-138 165h-8l-141 -165l-57 32l148 225h107z"/>
<glyph glyph-name="underscore" horiz-adv-x="557" unicode="_" d="M501 -97h-445v97h445v-97z"/>
<glyph glyph-name="grave" horiz-adv-x="353" unicode="`" d="M297 588l-43 -64l-226 110l68 102z"/>
<glyph glyph-name="a" horiz-adv-x="567" unicode="a" d="M182 169v-19q0 -51 58 -51q60 0 123 48v69h-133q-48 -1 -48 -47zM74 383l-14 100q133 24 257 24q100 0 147 -40.5t47 -140.5v-326h-117l-15 75q-74 -87 -182 -87q-71 0 -116 37.5t-45 104.5v50q0 59 40 92t111 33h176v22q-1 38 -17.5 51t-63.5 13q-82 0 -208 -8z"/>
<glyph glyph-name="b" horiz-adv-x="592" unicode="b" d="M207 347v-240q44 -9 89 -9h11q51 2 71.5 34t20.5 118q0 82 -17 110.5t-71 28.5q-41 0 -104 -42zM208 700v-157q0 -69 -13 -116q78 80 175 80q96 0 138.5 -59.5t42.5 -196.5q0 -127 -52 -195t-189 -68q-60 0 -134.5 10t-116.5 28v674h149z"/>
<glyph glyph-name="c" horiz-adv-x="507" unicode="c" d="M465 117l13 -96q-76 -33 -191 -33q-136 0 -191.5 58.5t-55.5 200.5q0 143 56 201.5t193 58.5q112 0 182 -31l-16 -92q-108 2 -141 2q-68 0 -93.5 -29t-25.5 -110t25.5 -110t93.5 -29q87 0 151 9z"/>
<glyph glyph-name="d" horiz-adv-x="594" unicode="d" d="M385 150v228q-67 19 -105 19q-50 0 -68.5 -28t-18.5 -117q0 -85 18 -113.5t64 -28.5q31 0 53 8.5t57 31.5zM533 700v-700h-117l-12 72q-71 -84 -188 -84q-92 0 -133.5 66.5t-41.5 196.5q0 142 46 199t143 57q95 0 160 -44q-5 55 -5 103v134h148z"/>
<glyph glyph-name="e" horiz-adv-x="560" unicode="e" d="M194 286h140q27 0 36.5 13t9.5 38q0 35 -18 48.5t-66 13.5q-57 0 -78 -22.5t-24 -90.5zM375 197h-178q7 -54 32.5 -72.5t84.5 -18.5q79 0 184 11l14 -92q-77 -37 -215 -37q-139 0 -198 60t-59 198q0 145 57.5 203t193.5 58q123 0 178 -42.5t56 -129.5q0 -69 -35.5 -103.5 t-114.5 -34.5z"/>
<glyph glyph-name="f" horiz-adv-x="404" unicode="f" d="M413 612h-93q-37 0 -51.5 -14t-14.5 -50v-55h136v-99h-136v-394h-149v394h-86v94l86 5v75q0 152 162 152q105 0 160 -10z"/>
<glyph glyph-name="g" horiz-adv-x="579" unicode="g" d="M321 19l-124 13q-32 -26 -32 -57q0 -36 22 -46t95 -10t96.5 10.5t23.5 43.5q0 26 -15 33t-66 13zM277 285q54 0 74.5 14t20.5 50q0 37 -20 50t-75 13t-75.5 -13t-20.5 -50q0 -36 20.5 -50t75.5 -14zM559 428l-62 -8q12 -28 12 -71q0 -86 -51.5 -122t-180.5 -36 q-43 0 -85 5q-7 -12 -7 -23q0 -32 36 -36l179 -21q76 -9 109.5 -44t33.5 -103q0 -94 -56.5 -127t-202.5 -33q-152 0 -206 31.5t-54 115.5q0 38 17.5 62.5t60.5 44.5q-28 27 -28 68q0 59 44 84q-73 34 -73 133q0 87 52 123t181 36q78 0 129 -14h159z"/>
<glyph glyph-name="h" horiz-adv-x="599" unicode="h" d="M210 700v-171q0 -51 -9 -103q103 81 202 81q67 0 102.5 -35t35.5 -102v-370h-147v324q0 33 -10.5 45.5t-37.5 12.5q-53 0 -137 -45v-337h-148v700h149z"/>
<glyph glyph-name="i" horiz-adv-x="276" unicode="i" d="M212 0h-147v493h147v-493zM105 711h66q43 0 43 -43v-54q0 -43 -43 -43h-66q-43 0 -43 43v54q0 43 43 43z"/>
<glyph glyph-name="j" horiz-adv-x="278" unicode="j" d="M213 493v-470q0 -69 -34 -128.5t-93 -91.5l-81 65q61 69 61 155v470h147zM106 715h65q43 0 43 -43v-54q0 -43 -43 -43h-65q-43 0 -43 43v54q0 43 43 43z"/>
<glyph glyph-name="k" horiz-adv-x="557" unicode="k" d="M249 229h-47q7 -45 7 -74v-155h-148v700h148v-289q0 -49 -7 -90h46l122 172h166l-128 -171q-16 -27 -46 -47v-2q25 -17 46 -53l145 -220h-166z"/>
<glyph glyph-name="l" horiz-adv-x="327" unicode="l" d="M209 700v-539q0 -50 56 -50h40l17 -103q-38 -20 -118 -20q-66 0 -104 35.5t-38 100.5v576h147z"/>
<glyph glyph-name="m" horiz-adv-x="878" unicode="m" d="M179 493l10 -72q94 86 188 86q100 0 127 -80q87 80 180 80q67 0 102 -35t35 -102v-370h-147v324q0 32 -11 45t-41 13q-24 0 -46 -9t-64 -35v-338h-142v324q0 32 -12.5 45t-40.5 13q-39 0 -109 -43v-339h-147v493h118z"/>
<glyph glyph-name="n" horiz-adv-x="599" unicode="n" d="M181 493l11 -73q107 87 211 87q67 0 102.5 -35t35.5 -102v-370h-147v324q0 33 -10.5 45.5t-37.5 12.5q-47 0 -137 -45v-337h-148v493h120z"/>
<glyph glyph-name="o" horiz-adv-x="587" unicode="o" d="M294 396q-59 0 -79 -30t-20 -120q0 -88 20 -118t79 -30q57 0 77.5 30t20.5 118q0 89 -20 119.5t-78 30.5zM294 507q138 0 195.5 -59.5t57.5 -201.5t-57.5 -200.5t-195.5 -58.5q-139 0 -196.5 58.5t-57.5 200.5q0 143 57.5 202t196.5 59z"/>
<glyph glyph-name="p" horiz-adv-x="600" unicode="p" d="M208 343v-226q78 -20 112 -20q49 0 67.5 28t18.5 117q0 87 -17 117.5t-60 30.5q-49 0 -121 -47zM181 493l11 -72q31 37 85.5 61t110.5 24q170 0 170 -264q0 -142 -45.5 -198.5t-142.5 -56.5q-100 0 -165 48q3 -39 3 -79v-27v-119h-147v683h120z"/>
<glyph glyph-name="q" horiz-adv-x="591" unicode="q" d="M385 148v239q-50 10 -92 10h-9q-53 -2 -72.5 -34t-19.5 -123q0 -73 16.5 -101.5t65.5 -28.5q45 0 111 38zM532 -190h-148v144q0 65 12 112q-87 -79 -179 -79t-134.5 63t-42.5 194q0 132 52 197.5t192 65.5q59 0 132.5 -10t115.5 -29v-658z"/>
<glyph glyph-name="r" horiz-adv-x="425" unicode="r" d="M415 507l-15 -137h-40q-49 0 -151 -34v-336h-148v493h115l13 -72q101 86 200 86h26z"/>
<glyph glyph-name="s" horiz-adv-x="527" unicode="s" d="M280 183l-123 33q-68 20 -94 54.5t-26 95.5q0 77 47.5 109t162.5 32q133 -2 228 -19l-10 -95q-126 2 -190 2q-35 0 -48.5 -0.5t-27 -3.5t-16.5 -9.5t-3 -19.5q0 -5 0.5 -9t2.5 -7.5t3.5 -5.5t5.5 -4.5t6.5 -3.5t9 -3.5t10 -3.5t13 -3.5t14.5 -3.5l126 -34 q66 -19 94 -50.5t28 -93.5q0 -88 -51 -119.5t-175 -31.5q-120 0 -221 17l9 96q36 -2 171 -2q77 0 100.5 6.5t23.5 30.5q0 5 -0.5 9t-2.5 7.5t-4 5.5t-6.5 4.5t-7 4t-9.5 4t-11 3.5l-14 3.5t-15 4.5z"/>
<glyph glyph-name="t" horiz-adv-x="411" unicode="t" d="M253 394v-233q0 -28 12 -39t42 -11h63l16 -103q-57 -20 -139 -20q-67 0 -104 37.5t-37 104.5v264h-87v94l87 5v138h147v-138h137v-99h-137z"/>
<glyph glyph-name="u" d="M529 493v-493h-117l-11 68q-102 -81 -204 -81q-139 0 -139 137v369h148v-324q-1 -32 11 -45t42 -13q43 0 123 41v341h147z" unicode="u"/>
<glyph glyph-name="v" horiz-adv-x="563" unicode="v" d="M555 493l-162 -458q-12 -35 -48 -35h-128q-36 0 -48 35l-162 458h157l89 -309q11 -41 21 -88h13l23 88l89 309h156z"/>
<glyph glyph-name="w" horiz-adv-x="847" unicode="w" d="M831 493l-121 -454q-10 -39 -51 -39h-116q-20 0 -35 12.5t-18 32.5l-50 279q-1 9 -4.5 38t-6.5 45h-12l-12 -83l-49 -279q-3 -20 -18 -32.5t-36 -12.5h-114q-41 0 -51 39l-121 454h149l67 -320q10 -54 12 -81h13q2 14 6.5 41t6.5 40l50 276q7 44 51 44h104q20 0 34.5 -12 t17.5 -33l49 -275q2 -14 7 -41t7 -40h12l12 81l68 320h149z"/>
<glyph glyph-name="x" horiz-adv-x="564" unicode="x" d="M285 207h-6l-117 -207h-152l152 253l-141 240h151l105 -190h10l105 190h151l-141 -240l152 -253h-152z"/>
<glyph glyph-name="y" horiz-adv-x="562" unicode="y" d="M554 493l-175 -500q-29 -82 -86.5 -139t-151.5 -57q-10 0 -34 2l-12 87q60 16 94 41.5t53 68.5l2 4h-28q-37 0 -48 36l-161 457h158l92 -319q9 -35 15 -74h13q3 12 10 37.5t10 36.5l91 319h158z"/>
<glyph glyph-name="z" horiz-adv-x="525" unicode="z" d="M485 106v-106h-445v106l272 282h-267v105h435v-105l-271 -282h276z"/>
<glyph glyph-name="braceleft" horiz-adv-x="339" unicode="{" d="M303 768v-91q-45 0 -60.5 -12.5t-15.5 -49.5v-151v-6q0 -62 -22 -91t-81 -39q61 -17 83.5 -47t23.5 -85v-210q0 -37 15.5 -48.5t60.5 -11.5v-91q-27 -4 -55 -4q-82 0 -122 38t-40 105v239q0 18 -2 28t-12 18t-15 10t-27 11v96l27 9t14.5 10t9.5 19t1 33v182q0 67 40 105 t122 38q28 0 55 -4z"/>
<glyph glyph-name="bar" horiz-adv-x="261" unicode="|" d="M182 -169h-104v950h104v-950z"/>
<glyph glyph-name="braceright" horiz-adv-x="340" unicode="}" d="M37 677v91q27 4 55 4q82 0 122 -38t40 -105v-182q0 -22 1 -33t9.5 -19t14.5 -10l27 -9v-96q-39 -16 -46 -25q-10 -13 -10 -42v-239q0 -67 -40 -105t-122 -38q-28 0 -55 4v91q45 0 60.5 11.5t15.5 48.5v210q1 55 23.5 85t83.5 47q-59 10 -81 39.5t-22 91.5v5v151 q0 37 -15.5 49.5t-60.5 12.5z"/>
<glyph glyph-name="asciitilde" horiz-adv-x="513" unicode="~" d="M129 217h-67q-3 21 -3 39q0 52 23 79.5t59 27.5h2q32 -2 111 -25.5t95 -25.5q4 -1 11 -1q16 0 20.5 10.5t4.5 36.5h67q3 -21 3 -40q0 -51 -21.5 -78t-57.5 -27h-5q-35 1 -113 24.5t-94 25.5q-4 1 -11 1q-15 0 -19.5 -10t-4.5 -37z"/>
<glyph glyph-name="exclamdown" horiz-adv-x="283" unicode="¡" d="M215 82v-267h-147v267l16 206h116zM125 507h34q29 0 40.5 -11.5t11.5 -40.5v-49q0 -29 -11.5 -40t-40.5 -11h-34q-29 0 -40.5 11t-11.5 40v49q0 29 11.5 40.5t40.5 11.5z"/>
<glyph glyph-name="cent" horiz-adv-x="521" unicode="¢" d="M466 213l13 -91q-68 -29 -158 -32l-10 -90h-111l10 94q-92 14 -131.5 73t-39.5 181q0 137 52 196t176 63l9 83h111l-10 -88q57 -9 95 -25l-16 -90q-72 4 -142 4q-74 0 -101.5 -29.5t-27.5 -113.5t27.5 -113.5t101.5 -29.5q87 0 152 8z"/>
<glyph glyph-name="sterling" horiz-adv-x="585" unicode="£" d="M544 123v-123h-494v123q78 36 78 134q0 17 -1 26l-3 42h-77l-1 77h73l-8 113q-1 9 -1 25q0 95 49 128.5t157 33.5q90 0 206 -10l-8 -114q-43 1 -179 1q-41 0 -58 -12.5t-17 -45.5v-12l9 -107h179l-4 -77h-169l3 -42q1 -8 1 -22q0 -53 -17.5 -83.5t-55.5 -61.5q25 7 76 7 h262z"/>
<glyph glyph-name="currency" horiz-adv-x="585" unicode="¤" d="M292 234q47 0 81.5 34.5t34.5 83.5t-34.5 84t-81.5 35q-48 0 -83 -35t-35 -84t35 -83.5t83 -34.5zM534 531l-71 -71q31 -48 31 -109q0 -58 -32 -108l72 -71l-62 -61l-71 70q-51 -32 -109 -32t-109 32l-69 -69l-66 65l70 70q-29 48 -29 104q0 61 33 111l-70 69l62 61 l69 -70q47 32 109 32q61 0 110 -33l71 71z"/>
<glyph glyph-name="yen" horiz-adv-x="658" unicode="¥" d="M94 236h473v-93h-162v-143h-151v143h-159zM465 361h102v-94h-472l-1 94h100l-169 329h157l116 -237q5 -9 27 -88h10q22 77 27 88l113 237h157z"/>
<glyph glyph-name="brokenbar" horiz-adv-x="263" unicode="¦" d="M183 -169h-104v400h104v-400zM183 381h-104v400h104v-400z"/>
<glyph glyph-name="section" horiz-adv-x="553" unicode="§" d="M68 359h103q0 -4 -0.5 -11.5t-0.5 -10.5q0 -46 16 -71t61 -49l157 -87q23 -13 37 -23.5t31 -29.5t25 -46t8 -63q0 -87 -53.5 -117t-168.5 -30q-129 0 -225 12l10 106q76 -4 172 -4q59 0 82.5 7t24.5 32v7q0 20 -13.5 33t-39.5 27l-136 72q-107 54 -107 150q0 40 17 96z M307 308l-158 88q-24 14 -37 23.5t-30.5 28.5t-25.5 45.5t-8 62.5q0 85 53 116t170 31q121 0 225 -12l-10 -106q-54 3 -172 3h-21q-45 0 -65 -7t-22 -30v-5q0 -20 13.5 -34t40.5 -28l137 -72q105 -53 105 -149q0 -42 -17 -98h-103q0 4 0.5 12t0.5 11q0 46 -16 71t-60 49z "/>
<glyph glyph-name="dieresis" horiz-adv-x="424" unicode="¨" d="M279 708h48q33 0 33 -33v-58q0 -33 -33 -33h-48q-33 0 -33 33v58q0 33 33 33zM97 708h49q32 0 32 -33v-58q0 -33 -32 -33h-49q-32 0 -32 33v58q0 33 32 33z"/>
<glyph glyph-name="copyright" horiz-adv-x="810" unicode="©" d="M547 236l9 -80q-63 -18 -146 -18q-107 0 -151 47t-44 162q0 114 44 160.5t151 46.5q79 0 136 -14l-9 -80q-86 2 -128 2q-48 0 -64.5 -23.5t-16.5 -91.5q0 -69 16 -92t65 -23q97 0 138 4zM405 632q-119 0 -203 -82t-84 -205t84 -205t203 -82q120 0 203.5 82t83.5 205 t-83.5 205t-203.5 82zM405 703q154 0 258 -101.5t104 -256.5t-104 -256.5t-258 -101.5q-153 0 -257.5 101.5t-104.5 256.5t104.5 256.5t257.5 101.5z"/>
<glyph glyph-name="ordfeminine" horiz-adv-x="437" unicode="ª" d="M152 388v-10q0 -30 40 -30q37 0 81 30v46l-85 -7q-36 -3 -36 -29zM75 526l-11 73q98 16 184 16q67 0 100 -28t33 -96v-216h-86l-11 54q-55 -63 -129 -63q-47 0 -77.5 24t-30.5 68v36q0 39 27.5 61.5t75.5 22.5h123v14q0 20 -11 29.5t-38 9.5q-59 0 -149 -5z"/>
<glyph glyph-name="guillemotleft" horiz-adv-x="518" unicode="«" d="M478 415l-106 -164l106 -169l-77 -49l-160 202v32l159 198zM270 415l-105 -164l106 -169l-78 -49l-159 202v32l158 198z"/>
<glyph glyph-name="logicalnot" horiz-adv-x="582" unicode="¬" d="M518 355v-220h-110v115h-350v105h460z"/>
<glyph glyph-name="softhyphen" horiz-adv-x="414" unicode="­" d="M356 206h-298v97h298v-97z"/>
<glyph glyph-name="registered" horiz-adv-x="523" unicode="®" d="M225 497h42q25 1 33.5 7.5t8.5 23.5q0 18 -8.5 24t-33.5 6h-42v-61zM318 478v-2q32 -4 40 -37l24 -72h-67l-19 70q-8 19 -30 19h-41v-89h-62v233q33 3 106 3q56 0 79.5 -15t23.5 -54q0 -51 -54 -56zM262 301q73 0 125.5 52.5t52.5 127.5q0 74 -52.5 126.5t-125.5 52.5 q-74 0 -126 -52.5t-52 -126.5q0 -75 52 -127.5t126 -52.5zM262 703q92 0 157 -65t65 -157q0 -93 -65 -158t-157 -65q-93 0 -158 65t-65 158q0 92 65 157t158 65z"/>
<glyph glyph-name="macron" horiz-adv-x="400" unicode="¯" d="M350 598h-300v95h300v-95z"/>
<glyph glyph-name="degree" horiz-adv-x="344" unicode="°" d="M172 629q-25 0 -41.5 -16t-16.5 -42t17 -43t41 -17t41 17t17 43t-16.5 42t-41.5 16zM172 703q55 0 95.5 -38.5t40.5 -93.5t-40 -94.5t-96 -39.5t-96 39.5t-40 94.5t40 93.5t96 38.5z"/>
<glyph glyph-name="plusminus" horiz-adv-x="574" unicode="±" d="M59 153h456v-108h-456v108zM515 427v-109h-174v-119h-109v119h-173v109h173v120h110v-120h173z"/>
<glyph glyph-name="twosuperior" horiz-adv-x="432" unicode="²" d="M57 684l-4 84q77 13 150 13q90 0 128.5 -21.5t38.5 -84.5q0 -55 -72 -124l-108 -98q29 5 62 5l131 -2v-96h-334v59q0 30 17 47l101 93q72 65 80 101q2 17 -11 22t-43 5q-47 0 -136 -3z"/>
<glyph glyph-name="threesuperior" horiz-adv-x="413" unicode="³" d="M59 691l-4 80q79 11 148 11q88 0 122 -21t34 -75q0 -48 -16.5 -73.5t-61.5 -31.5v-2q49 -7 68.5 -31t20.5 -73v-6q0 -63 -37.5 -90t-125.5 -27q-67 0 -161 11l4 82q55 -3 126 -3q46 0 62 10t16 39q0 23 -12.5 33.5t-50.5 10.5l-86 2v74l86 1q36 1 47 12t11 32 q0 22 -13 29t-52 7q-92 0 -125 -1z"/>
<glyph glyph-name="acute" horiz-adv-x="353" unicode="´" d="M317 634l-225 -110l-44 64l201 148z"/>
<glyph glyph-name="paragraph" horiz-adv-x="603" unicode="¶" d="M260 -210v411q-124 11 -177.5 69t-53.5 180q0 138 73 195t246 57q103 0 171 -17v-685h-98v610q-44 2 -63 2v-822h-98z"/>
<glyph glyph-name="periodcentered" horiz-adv-x="254" unicode="·" d="M107 334h40q29 0 40.5 -11.5t11.5 -40.5v-48q0 -29 -11.5 -40.5t-40.5 -11.5h-40q-29 0 -40.5 11.5t-11.5 40.5v48q0 29 11.5 40.5t40.5 11.5z"/>
<glyph glyph-name="cedilla" horiz-adv-x="248" unicode="¸" d="M66 -96l14 58q33 4 65 4q42 0 60.5 -14t18.5 -49v-6q-3 -65 -48 -101t-116 -36q-24 0 -36 2l19 65h4q36 0 59 15t23 45q0 11 -11.5 14t-51.5 3z"/>
<glyph glyph-name="onesuperior" horiz-adv-x="306" unicode="¹" d="M245 360h-113v271q0 33 4 50l-103 -21l-13 73l112 41h113v-414z"/>
<glyph glyph-name="ordmasculine" horiz-adv-x="439" unicode="º" d="M220 535q-38 0 -51 -19t-14 -76q1 -56 14 -75t51 -19q37 0 50.5 19t13.5 75q0 57 -13.5 76t-50.5 19zM220 615q97 0 136.5 -39.5t39.5 -135.5q0 -95 -39.5 -134t-136.5 -39t-137 39t-40 134q0 96 40 135.5t137 39.5z"/>
<glyph glyph-name="guillemotright" horiz-adv-x="518" unicode="»" d="M277 267v-32l-159 -202l-78 49l106 169l-105 164l77 50zM485 267v-32l-160 -202l-77 49l106 169l-106 164l78 50z"/>
<glyph glyph-name="onequarter" horiz-adv-x="900" unicode="¼" d="M867 95l-47 -9v-86h-105v85h-179q-22 0 -36.5 11.5t-14.5 31.5q0 12 6 26l113 260h104l-101 -234q-6 -16 14 -16h94v105l18 64h87v-169h47v-69zM663 690l-416 -690h-95l417 690h94zM136 276v271q0 29 5 50l-101 -21l-13 73l109 41h113v-414h-113z"/>
<glyph glyph-name="onehalf" horiz-adv-x="913" unicode="½" d="M548 324l-4 84q77 13 149 13q90 0 128.5 -21.5t38.5 -84.5q0 -55 -73 -124l-106 -98q29 5 62 5l129 -2v-96h-332v59q0 30 17 47l100 93q73 67 79 101v5q0 13 -12.5 17.5t-40.5 4.5q-47 0 -135 -3zM242 0h-95l416 690h95zM249 276h-113v271q0 29 5 50l-101 -21l-13 73 l109 41h113v-414z"/>
<glyph glyph-name="threequarters" horiz-adv-x="984" unicode="¾" d="M952 95l-47 -9v-86h-105v85h-178q-22 0 -36.5 11.5t-14.5 31.5q0 11 6 26l112 260h104l-101 -234q-6 -16 14 -16h94v105l18 64h87v-169h47v-69zM754 690l-416 -690h-95l416 690h95zM276 495v-2q51 -7 70 -31.5t19 -75.5q0 -65 -36.5 -93t-125.5 -28q-73 0 -160 12l4 82 q56 -3 125 -3q46 0 61.5 9.5t15.5 38.5q0 24 -12.5 35t-49.5 12h-85v72l85 2q35 0 45.5 11t10.5 33t-12.5 29.5t-50.5 7.5q-91 0 -124 -1l-4 80q73 10 148 10q86 0 119.5 -20.5t33.5 -74.5q0 -49 -16 -74t-61 -31z"/>
<glyph glyph-name="questiondown" horiz-adv-x="511" unicode="¿" d="M210 290h118v-12q0 -56 -21.5 -105t-47.5 -77t-49 -59.5t-25 -55.5v-8q0 -56 92 -56q88 0 201 5l5 -101q-8 -1 -29.5 -5.5t-29.5 -5.5t-26.5 -4t-31 -4t-32.5 -2.5t-42.5 -2t-49.5 -0.5q-108 0 -160.5 38t-52.5 117q0 40 17.5 74.5t42.5 60.5t51 53t46 65.5t24 84.5z M253 509h34q29 0 40.5 -11.5t11.5 -40.5v-48q0 -29 -11.5 -40.5t-40.5 -11.5h-34q-29 0 -40.5 11.5t-11.5 40.5v48q0 29 11.5 40.5t40.5 11.5z"/>
<glyph glyph-name="Agrave" horiz-adv-x="650" unicode="À" d="M411 299l-58 211q-12 50 -14 65h-27q-2 -10 -7 -32t-8 -33l-58 -211h172zM444 181h-237l-50 -181h-156l199 650q4 18 19 29t34 11h144q43 0 53 -40l199 -650h-155zM354 723l-225 109l67 103l202 -149z"/>
<glyph glyph-name="Aacute" horiz-adv-x="650" unicode="Á" d="M411 299l-58 211q-12 50 -14 65h-27q-2 -10 -7 -32t-8 -33l-58 -211h172zM444 181h-237l-50 -181h-156l199 650q4 18 19 29t34 11h144q43 0 53 -40l199 -650h-155zM286 723l-44 63l202 149l67 -103z"/>
<glyph glyph-name="Acircumflex" horiz-adv-x="650" unicode="Â" d="M411 299l-58 211q-12 50 -14 65h-27q-2 -10 -7 -32t-8 -33l-58 -211h172zM444 181h-237l-50 -181h-156l199 650q4 18 19 29t34 11h144q43 0 53 -40l199 -650h-155zM180 719l-41 58l134 132h107l132 -135l-41 -55l-141 95h-8z"/>
<glyph glyph-name="Atilde" horiz-adv-x="650" unicode="Ã" d="M411 299l-58 211q-12 50 -14 65h-27q-2 -10 -7 -32t-8 -33l-58 -211h172zM444 181h-237l-50 -181h-156l199 650q4 18 19 29t34 11h144q43 0 53 -40l199 -650h-155zM215 757h-63q-3 20 -3 37q0 51 22 78t56 27h6q35 -3 85.5 -23.5t74.5 -24.5q5 -1 13 -1q15 0 20 10t5 34 h64q3 -20 3 -37q0 -50 -21.5 -77t-57.5 -27h-6q-38 3 -89.5 24.5t-70.5 24.5q-4 1 -11 1q-17 0 -22 -10.5t-5 -35.5z"/>
<glyph glyph-name="Adieresis" horiz-adv-x="650" unicode="Ä" d="M411 299l-58 211q-12 50 -14 65h-27q-2 -10 -7 -32t-8 -33l-58 -211h172zM444 181h-237l-50 -181h-156l199 650q4 18 19 29t34 11h144q43 0 53 -40l199 -650h-155zM440 763h-48q-33 0 -33 33v57q0 33 33 33h48q33 0 33 -33v-57q0 -33 -33 -33zM258 763h-48q-33 0 -33 33 v57q0 33 33 33h48q33 0 33 -33v-57q0 -33 -33 -33z"/>
<glyph glyph-name="Aring" horiz-adv-x="650" unicode="Å" d="M411 299l-58 211q-12 50 -14 65h-27q-2 -10 -7 -32t-8 -33l-58 -211h172zM444 181h-237l-50 -181h-156l199 650q4 18 19 29t34 11h144q43 0 53 -40l199 -650h-155zM326 879q-21 0 -35.5 -14.5t-14.5 -36.5q0 -23 14.5 -37t35.5 -14t35.5 14t14.5 37q0 22 -14.5 36.5 t-35.5 14.5zM326 713q-49 0 -83.5 33.5t-34.5 81.5t35 81.5t83 33.5t83 -33.5t35 -81.5t-34.5 -81.5t-83.5 -33.5z"/>
<glyph glyph-name="AE" horiz-adv-x="931" unicode="Æ" d="M444 304v224q0 40 23 67h-11q-19 -16 -40 -53l-119 -238h147zM884 119l7 -112q-99 -10 -317 -10q-59 0 -94.5 39t-35.5 100v54h-204l-94 -190h-157l291 558q26 52 58 79.5t86.5 40.5t144.5 13q217 0 322 -8l-7 -112h-245q-23 0 -38 -14.5t-15 -39.5v-104h261v-108h-261 v-134q0 -28 12.5 -40t40.5 -12h245z"/>
<glyph glyph-name="Ccedilla" horiz-adv-x="586" unicode="Ç" d="M252 -116l15 58q33 4 65 4q41 0 60 -14t19 -49v-6q-3 -65 -47.5 -101t-114.5 -36q-19 0 -38 3l19 64h4q35 0 58.5 15t23.5 45q0 11 -11.5 14t-52.5 3zM545 129l13 -113q-90 -28 -221 -28q-160 0 -225 80t-65 277t65 277t225 80q116 0 207 -23l-13 -114q-81 5 -194 5 q-75 0 -102.5 -47.5t-27.5 -177.5t27.5 -177.5t102.5 -47.5q139 0 208 9z"/>
<glyph glyph-name="Egrave" horiz-adv-x="576" unicode="È" d="M529 119l7 -112q-94 -10 -320 -10q-69 0 -110 37.5t-42 101.5v418q1 64 42 101.5t110 37.5q226 0 320 -10l-7 -113h-265q-25 0 -36 -12t-11 -39v-105h275v-110h-275v-133q0 -28 11 -40t36 -12h265zM343 735l-225 109l67 102l202 -148z"/>
<glyph glyph-name="Eacute" horiz-adv-x="576" unicode="É" d="M529 119l7 -112q-94 -10 -320 -10q-69 0 -110 37.5t-42 101.5v418q1 64 42 101.5t110 37.5q226 0 320 -10l-7 -113h-265q-25 0 -36 -12t-11 -39v-105h275v-110h-275v-133q0 -28 11 -40t36 -12h265zM275 735l-44 63l202 148l67 -102z"/>
<glyph glyph-name="Ecircumflex" horiz-adv-x="576" unicode="Ê" d="M529 119l7 -112q-94 -10 -320 -10q-69 0 -110 37.5t-42 101.5v418q1 64 42 101.5t110 37.5q226 0 320 -10l-7 -113h-265q-25 0 -36 -12t-11 -39v-105h275v-110h-275v-133q0 -28 11 -40t36 -12h265zM169 731l-41 58l134 132h107l132 -135l-41 -55l-141 95h-8z"/>
<glyph glyph-name="Edieresis" horiz-adv-x="576" unicode="Ë" d="M529 119l7 -112q-94 -10 -320 -10q-69 0 -110 37.5t-42 101.5v418q1 64 42 101.5t110 37.5q226 0 320 -10l-7 -113h-265q-25 0 -36 -12t-11 -39v-105h275v-110h-275v-133q0 -28 11 -40t36 -12h265zM429 775h-48q-33 0 -33 32v58q0 33 33 33h48q33 0 33 -33v-58 q0 -32 -33 -32zM248 775h-49q-33 0 -33 32v58q0 33 33 33h49q32 0 32 -33v-58q0 -32 -32 -32z"/>
<glyph glyph-name="Igrave" horiz-adv-x="292" unicode="Ì" d="M222 0h-152v690h152v-690zM218 786l-44 -63l-225 109l68 103z"/>
<glyph glyph-name="Iacute" horiz-adv-x="292" unicode="Í" d="M222 0h-152v690h152v-690zM331 832l-225 -109l-43 63l201 149z"/>
<glyph glyph-name="Icircumflex" horiz-adv-x="292" unicode="Î" d="M222 0h-152v690h152v-690zM333 774l-42 -55l-140 95h-8l-143 -95l-41 58l134 132h107z"/>
<glyph glyph-name="Idieresis" horiz-adv-x="292" unicode="Ï" d="M222 0h-152v690h152v-690zM212 886h49q33 0 33 -33v-57q0 -33 -33 -33h-49q-33 0 -33 33v57q0 33 33 33zM30 886h49q32 0 32 -33v-57q0 -33 -32 -33h-49q-32 0 -32 33v57q0 33 32 33z"/>
<glyph glyph-name="Eth" horiz-adv-x="683" unicode="Ð" d="M225 323v-211q17 0 56 -0.5t61 -0.5q77 0 105 49.5t28 184.5q0 136 -28 185.5t-105 49.5l-117 -1v-179h124v-77h-124zM73 400v290q142 9 269 9q164 0 228.5 -76t64.5 -278t-64.5 -278t-228.5 -76q-127 0 -269 9v323h-57v77h57z"/>
<glyph glyph-name="Ntilde" horiz-adv-x="722" unicode="Ñ" d="M652 690v-635q0 -55 -54 -55h-95q-23 0 -36 10.5t-25 34.5l-181 368q-34 73 -42 107h-11q7 -50 7 -110v-410h-145v635q0 55 55 55h93q23 0 36 -10.5t25 -34.5l175 -357q25 -50 50 -111h10q-6 78 -6 116v397h144zM257 757h-63q-3 20 -3 37q0 51 22 78t56 27h6 q35 -3 85.5 -23.5t74.5 -24.5q5 -1 13 -1q15 0 20 10t5 34h63q3 -21 3 -38q0 -48 -21.5 -75.5t-56.5 -27.5h-6q-38 3 -89.5 24.5t-70.5 24.5q-4 1 -11 1q-17 0 -22 -10.5t-5 -35.5z"/>
<glyph glyph-name="Ograve" horiz-adv-x="684" unicode="Ò" d="M342 580q-78 0 -106.5 -49t-28.5 -186t28.5 -186t106.5 -49t106.5 49t28.5 186t-28.5 186t-106.5 49zM342 703q166 0 231 -76.5t65 -281.5t-65 -281.5t-231 -76.5t-230.5 76.5t-64.5 281.5t64.5 281.5t230.5 76.5zM413 786l-43 -63l-226 109l68 103z"/>
<glyph glyph-name="Oacute" horiz-adv-x="684" unicode="Ó" d="M342 580q-78 0 -106.5 -49t-28.5 -186t28.5 -186t106.5 -49t106.5 49t28.5 186t-28.5 186t-106.5 49zM342 703q166 0 231 -76.5t65 -281.5t-65 -281.5t-231 -76.5t-230.5 76.5t-64.5 281.5t64.5 281.5t230.5 76.5zM526 832l-225 -109l-43 63l201 149z"/>
<glyph glyph-name="Ocircumflex" horiz-adv-x="684" unicode="Ô" d="M342 580q-78 0 -106.5 -49t-28.5 -186t28.5 -186t106.5 -49t106.5 49t28.5 186t-28.5 186t-106.5 49zM342 703q166 0 231 -76.5t65 -281.5t-65 -281.5t-231 -76.5t-230.5 76.5t-64.5 281.5t64.5 281.5t230.5 76.5zM528 774l-42 -55l-140 95h-8l-143 -95l-41 58l134 132 h107z"/>
<glyph glyph-name="Otilde" horiz-adv-x="684" unicode="Õ" d="M342 580q-78 0 -106.5 -49t-28.5 -186t28.5 -186t106.5 -49t106.5 49t28.5 186t-28.5 186t-106.5 49zM342 703q166 0 231 -76.5t65 -281.5t-65 -281.5t-231 -76.5t-230.5 76.5t-64.5 281.5t64.5 281.5t230.5 76.5zM231 757h-64q-3 19 -3 36q0 51 22.5 78.5t56.5 27.5h6 q35 -3 85.5 -24t73.5 -24q5 -1 13 -1q16 0 21 10t5 34h63q3 -21 3 -38q0 -48 -21.5 -75.5t-56.5 -27.5h-6q-38 3 -90.5 24.5t-70.5 24.5q-4 1 -11 1q-16 0 -21 -10.5t-5 -35.5z"/>
<glyph glyph-name="Odieresis" horiz-adv-x="684" unicode="Ö" d="M342 580q-78 0 -106.5 -49t-28.5 -186t28.5 -186t106.5 -49t106.5 49t28.5 186t-28.5 186t-106.5 49zM342 703q166 0 231 -76.5t65 -281.5t-65 -281.5t-231 -76.5t-230.5 76.5t-64.5 281.5t64.5 281.5t230.5 76.5zM407 886h49q33 0 33 -33v-57q0 -33 -33 -33h-49 q-33 0 -33 33v57q0 33 33 33zM225 886h49q32 0 32 -33v-57q0 -33 -32 -33h-49q-32 0 -32 33v57q0 33 32 33z"/>
<glyph glyph-name="multiply" horiz-adv-x="492" unicode="×" d="M31 412l70 84l364 -326l-70 -83z"/>
<glyph glyph-name="Oslash" horiz-adv-x="684" unicode="Ø" d="M342 110q78 0 106.5 49t28.5 186t-28.5 186t-106.5 49t-106.5 -49t-28.5 -186t28.5 -186t106.5 -49zM597 739l-43 -93q45 -39 64.5 -111t19.5 -190q0 -205 -65 -281.5t-231 -76.5q-55 0 -96 7l-48 -103l-115 56l47 98q-83 73 -83 300q0 205 64.5 281.5t230.5 76.5 q56 0 95 -7l45 98z"/>
<glyph glyph-name="Ugrave" horiz-adv-x="681" unicode="Ù" d="M617 690v-415q0 -158 -60.5 -223t-208.5 -65q-156 0 -219.5 65t-63.5 223v415h152v-415q0 -95 26.5 -130t97.5 -35q70 0 96.5 35t26.5 130v415h153zM413 786l-43 -63l-226 109l68 103z"/>
<glyph glyph-name="Uacute" horiz-adv-x="681" unicode="Ú" d="M617 690v-415q0 -158 -60.5 -223t-208.5 -65q-156 0 -219.5 65t-63.5 223v415h152v-415q0 -95 26.5 -130t97.5 -35q70 0 96.5 35t26.5 130v415h153zM526 832l-225 -109l-43 63l201 149z"/>
<glyph glyph-name="Ucircumflex" horiz-adv-x="681" unicode="Û" d="M617 690v-415q0 -158 -60.5 -223t-208.5 -65q-156 0 -219.5 65t-63.5 223v415h152v-415q0 -95 26.5 -130t97.5 -35q70 0 96.5 35t26.5 130v415h153zM528 774l-42 -55l-140 95h-8l-143 -95l-41 58l134 132h107z"/>
<glyph glyph-name="Udieresis" horiz-adv-x="681" unicode="Ü" d="M617 690v-415q0 -158 -60.5 -223t-208.5 -65q-156 0 -219.5 65t-63.5 223v415h152v-415q0 -95 26.5 -130t97.5 -35q70 0 96.5 35t26.5 130v415h153zM407 886h49q33 0 33 -33v-57q0 -33 -33 -33h-49q-33 0 -33 33v57q0 33 33 33zM225 886h49q32 0 32 -33v-57 q0 -33 -32 -33h-49q-32 0 -32 33v57q0 33 32 33z"/>
<glyph glyph-name="Yacute" horiz-adv-x="608" unicode="Ý" d="M381 228v-228h-153v228l-228 462h159l115 -253q10 -22 26 -87h10q12 54 25 87l115 253h157zM264 723l-44 63l201 149l68 -103z"/>
<glyph glyph-name="Thorn" horiz-adv-x="610" unicode="Þ" d="M223 237h103q58 0 78.5 22t20.5 87q0 66 -20.5 88.5t-78.5 22.5l-103 -1v-219zM223 690v-116h107q142 0 195 -47.5t53 -180.5q0 -132 -50 -179.5t-179 -47.5q-64 0 -126 8v-127h-153v565v125h153z"/>
<glyph glyph-name="germandbls" horiz-adv-x="705" unicode="ß" d="M522 312l78 -45q48 -31 65.5 -58t17.5 -76q0 -79 -43.5 -111.5t-148.5 -32.5q-75 0 -167 11l9 99q84 -2 124 -2q48 0 63.5 7t15.5 35q0 11 -3.5 19.5t-16.5 19t-19 14.5l-30 20l-71 38q-75 46 -75 117q0 22 9.5 41t16 27t33 30.5t32.5 28.5q29 26 39 41.5t10 37.5 q0 27 -20 38.5t-83 11.5q-64 0 -85 -17t-21 -69v-537h-148v393h-86v98l86 2v61q0 104 57.5 141t193.5 37q139 0 190.5 -33.5t51.5 -118.5q0 -35 -13 -62t-54 -62q-7 -6 -22 -18t-21 -17t-14 -13.5t-10.5 -16t-2.5 -16.5q0 -11 8.5 -22t15.5 -16t29 -19z"/>
<glyph glyph-name="agrave" horiz-adv-x="567" unicode="à" d="M182 169v-19q0 -51 58 -51q60 0 123 48v69h-133q-48 -1 -48 -47zM74 383l-14 100q133 24 257 24q100 0 147 -40.5t47 -140.5v-326h-117l-15 75q-74 -87 -182 -87q-71 0 -116 37.5t-45 104.5v50q0 59 40 92t111 33h176v22q-1 38 -17.5 51t-63.5 13q-82 0 -208 -8zM311 540 l-225 110l67 102l202 -148z"/>
<glyph glyph-name="aacute" horiz-adv-x="567" unicode="á" d="M182 169v-19q0 -51 58 -51q60 0 123 48v69h-133q-48 -1 -48 -47zM74 383l-14 100q133 24 257 24q100 0 147 -40.5t47 -140.5v-326h-117l-15 75q-74 -87 -182 -87q-71 0 -116 37.5t-45 104.5v50q0 59 40 92t111 33h176v22q-1 38 -17.5 51t-63.5 13q-82 0 -208 -8zM243 540 l-44 64l201 148l68 -102z"/>
<glyph glyph-name="acircumflex" horiz-adv-x="567" unicode="â" d="M182 169v-19q0 -51 58 -51q60 0 123 48v69h-133q-48 -1 -48 -47zM74 383l-14 100q133 24 257 24q100 0 147 -40.5t47 -140.5v-326h-117l-15 75q-74 -87 -182 -87q-71 0 -116 37.5t-45 104.5v50q0 59 40 92t111 33h176v22q-1 38 -17.5 51t-63.5 13q-82 0 -208 -8zM137 537 l-41 58l134 132h107l132 -135l-41 -55l-141 95h-8z"/>
<glyph glyph-name="atilde" horiz-adv-x="567" unicode="ã" d="M182 169v-19q0 -51 58 -51q60 0 123 48v69h-133q-48 -1 -48 -47zM74 383l-14 100q133 24 257 24q100 0 147 -40.5t47 -140.5v-326h-117l-15 75q-74 -87 -182 -87q-71 0 -116 37.5t-45 104.5v50q0 59 40 92t111 33h176v22q-1 38 -17.5 51t-63.5 13q-82 0 -208 -8zM172 575 h-63q-3 20 -3 37q0 50 22.5 77t55.5 27h6q36 -3 86.5 -23.5t73.5 -24.5q4 -1 12 -1q16 0 21 9.5t5 34.5h64q3 -19 3 -36q0 -49 -22 -76.5t-57 -27.5h-6q-38 3 -89.5 24.5t-70.5 24.5q-2 0 -5.5 0.5t-4.5 0.5q-18 0 -23 -10t-5 -36z"/>
<glyph glyph-name="adieresis" horiz-adv-x="567" unicode="ä" d="M182 169v-19q0 -51 58 -51q60 0 123 48v69h-133q-48 -1 -48 -47zM74 383l-14 100q133 24 257 24q100 0 147 -40.5t47 -140.5v-326h-117l-15 75q-74 -87 -182 -87q-71 0 -116 37.5t-45 104.5v50q0 59 40 92t111 33h176v22q-1 38 -17.5 51t-63.5 13q-82 0 -208 -8zM397 580 h-48q-33 0 -33 33v58q0 33 33 33h48q33 0 33 -33v-58q0 -33 -33 -33zM215 580h-48q-33 0 -33 33v58q0 33 33 33h48q33 0 33 -33v-58q0 -33 -33 -33z"/>
<glyph glyph-name="aring" horiz-adv-x="567" unicode="å" d="M182 169v-19q0 -51 58 -51q60 0 123 48v69h-133q-48 -1 -48 -47zM74 383l-14 100q133 24 257 24q100 0 147 -40.5t47 -140.5v-326h-117l-15 75q-74 -87 -182 -87q-71 0 -116 37.5t-45 104.5v50q0 59 40 92t111 33h176v22q-1 38 -17.5 51t-63.5 13q-82 0 -208 -8zM283 697 q-21 0 -35.5 -14.5t-14.5 -37.5t14.5 -37t35.5 -14t35.5 14t14.5 37t-14.5 37.5t-35.5 14.5zM283 530q-49 0 -83.5 33.5t-34.5 81.5t34.5 81.5t83.5 33.5q48 0 83 -33.5t35 -81.5t-34.5 -81.5t-83.5 -33.5z"/>
<glyph glyph-name="ae" horiz-adv-x="875" unicode="æ" d="M182 169v-19q0 -51 56 -51q62 0 129 53q-7 31 -8 64h-130q-47 -1 -47 -47zM510 286h139q27 0 36.5 13t9.5 38q0 35 -18 48.5t-64 13.5q-58 0 -79.5 -22.5t-23.5 -90.5zM690 197h-178q7 -54 33 -72.5t86 -18.5q77 0 182 11l14 -92q-77 -37 -214 -37q-169 0 -223 97 q-76 -97 -195 -97q-70 0 -114.5 37.5t-44.5 104.5v50q0 58 40 91t110 33h173v23q0 37 -16.5 50.5t-62.5 13.5q-81 0 -207 -8l-13 100q131 24 254 24q90 0 136 -32q55 32 158 32q122 0 176.5 -42.5t54.5 -129.5q1 -69 -34.5 -103.5t-114.5 -34.5z"/>
<glyph glyph-name="ccedilla" horiz-adv-x="507" unicode="ç" d="M205 -110l15 58q33 4 65 4q41 0 60 -14t19 -49v-6q-3 -65 -48 -101t-116 -36q-24 0 -36 2l19 65h4q35 0 58.5 15t23.5 45q0 11 -11.5 14t-52.5 3zM465 117l13 -96q-76 -33 -191 -33q-136 0 -191.5 58.5t-55.5 200.5q0 143 56 201.5t193 58.5q112 0 182 -31l-16 -92 q-108 2 -141 2q-68 0 -93.5 -29t-25.5 -110t25.5 -110t93.5 -29q87 0 151 9z"/>
<glyph glyph-name="egrave" horiz-adv-x="560" unicode="è" d="M194 286h140q27 0 36.5 13t9.5 38q0 35 -18 48.5t-66 13.5q-57 0 -78 -22.5t-24 -90.5zM375 197h-178q7 -54 32.5 -72.5t84.5 -18.5q79 0 184 11l14 -92q-77 -37 -215 -37q-139 0 -198 60t-59 198q0 145 57.5 203t193.5 58q123 0 178 -42.5t56 -129.5q0 -69 -35.5 -103.5 t-114.5 -34.5zM321 540l-225 110l68 102l201 -148z"/>
<glyph glyph-name="eacute" horiz-adv-x="560" unicode="é" d="M194 286h140q27 0 36.5 13t9.5 38q0 35 -18 48.5t-66 13.5q-57 0 -78 -22.5t-24 -90.5zM375 197h-178q7 -54 32.5 -72.5t84.5 -18.5q79 0 184 11l14 -92q-77 -37 -215 -37q-139 0 -198 60t-59 198q0 145 57.5 203t193.5 58q123 0 178 -42.5t56 -129.5q0 -69 -35.5 -103.5 t-114.5 -34.5zM253 540l-44 64l202 148l67 -102z"/>
<glyph glyph-name="ecircumflex" horiz-adv-x="560" unicode="ê" d="M194 286h140q27 0 36.5 13t9.5 38q0 35 -18 48.5t-66 13.5q-57 0 -78 -22.5t-24 -90.5zM375 197h-178q7 -54 32.5 -72.5t84.5 -18.5q79 0 184 11l14 -92q-77 -37 -215 -37q-139 0 -198 60t-59 198q0 145 57.5 203t193.5 58q123 0 178 -42.5t56 -129.5q0 -69 -35.5 -103.5 t-114.5 -34.5zM147 537l-41 58l134 132h107l132 -135l-41 -55l-141 95h-8z"/>
<glyph glyph-name="edieresis" horiz-adv-x="560" unicode="ë" d="M194 286h140q27 0 36.5 13t9.5 38q0 35 -18 48.5t-66 13.5q-57 0 -78 -22.5t-24 -90.5zM375 197h-178q7 -54 32.5 -72.5t84.5 -18.5q79 0 184 11l14 -92q-77 -37 -215 -37q-139 0 -198 60t-59 198q0 145 57.5 203t193.5 58q123 0 178 -42.5t56 -129.5q0 -69 -35.5 -103.5 t-114.5 -34.5zM407 580h-48q-33 0 -33 33v58q0 33 33 33h48q33 0 33 -33v-58q0 -33 -33 -33zM226 580h-49q-33 0 -33 33v58q0 33 33 33h49q32 0 32 -33v-58q0 -33 -32 -33z"/>
<glyph glyph-name="igrave" horiz-adv-x="278" unicode="ì" d="M213 0h-148v493h148v-493zM211 604l-43 -64l-225 110l67 102z"/>
<glyph glyph-name="iacute" horiz-adv-x="278" unicode="í" d="M213 0h-148v493h148v-493zM325 650l-226 -110l-43 64l201 148z"/>
<glyph glyph-name="icircumflex" horiz-adv-x="278" unicode="î" d="M213 0h-148v493h148v-493zM326 592l-41 -55l-141 95h-8l-143 -95l-41 58l134 132h107z"/>
<glyph glyph-name="idieresis" horiz-adv-x="278" unicode="ï" d="M213 0h-148v493h148v-493zM206 704h48q33 0 33 -33v-58q0 -33 -33 -33h-48q-33 0 -33 33v58q0 33 33 33zM23 704h49q32 0 32 -33v-58q0 -33 -32 -33h-49q-32 0 -32 33v58q0 33 32 33z"/>
<glyph glyph-name="eth" horiz-adv-x="573" unicode="ð" d="M284 98q58 0 75.5 40.5t17.5 150.5l-1 42q-42 9 -92 9t-70.5 -27t-20.5 -94q0 -69 20.5 -95t70.5 -26zM507 663l-72 -70q96 -109 96 -306q0 -156 -56.5 -228t-192.5 -72q-125 0 -184 55.5t-59 173.5q0 120 49 177.5t164 57.5q65 0 112 -21q-20 93 -72 132t-142 39 q-19 0 -29 -1l13 98q12 1 34 1q97 0 172 -35l84 83z"/>
<glyph glyph-name="ntilde" horiz-adv-x="599" unicode="ñ" d="M181 493l11 -73q107 87 211 87q67 0 102.5 -35t35.5 -102v-370h-147v324q0 33 -10.5 45.5t-37.5 12.5q-47 0 -137 -45v-337h-148v493h120zM196 575h-63q-3 20 -3 37q0 50 22.5 77t56.5 27h6q36 -3 86 -23.5t73 -24.5q4 -1 12 -1q16 0 21.5 10t5.5 34h63q3 -21 3 -38 q0 -48 -22 -75t-57 -27h-6q-38 3 -89.5 24.5t-70.5 24.5q-2 0 -5.5 0.5t-4.5 0.5q-17 0 -22.5 -10.5t-5.5 -35.5z"/>
<glyph glyph-name="ograve" horiz-adv-x="587" unicode="ò" d="M294 396q-59 0 -79 -30t-20 -120q0 -88 20 -118t79 -30q57 0 77.5 30t20.5 118q0 89 -20 119.5t-78 30.5zM294 507q138 0 195.5 -59.5t57.5 -201.5t-57.5 -200.5t-195.5 -58.5q-139 0 -196.5 58.5t-57.5 200.5q0 143 57.5 202t196.5 59zM366 604l-44 -64l-225 110l68 102 z"/>
<glyph glyph-name="oacute" horiz-adv-x="587" unicode="ó" d="M294 396q-59 0 -79 -30t-20 -120q0 -88 20 -118t79 -30q57 0 77.5 30t20.5 118q0 89 -20 119.5t-78 30.5zM294 507q138 0 195.5 -59.5t57.5 -201.5t-57.5 -200.5t-195.5 -58.5q-139 0 -196.5 58.5t-57.5 200.5q0 143 57.5 202t196.5 59zM479 650l-225 -110l-43 64 l201 148z"/>
<glyph glyph-name="ocircumflex" horiz-adv-x="587" unicode="ô" d="M294 396q-59 0 -79 -30t-20 -120q0 -88 20 -118t79 -30q57 0 77.5 30t20.5 118q0 89 -20 119.5t-78 30.5zM294 507q138 0 195.5 -59.5t57.5 -201.5t-57.5 -200.5t-195.5 -58.5q-139 0 -196.5 58.5t-57.5 200.5q0 143 57.5 202t196.5 59zM481 592l-42 -55l-140 95h-8 l-143 -95l-41 58l134 132h107z"/>
<glyph glyph-name="otilde" horiz-adv-x="587" unicode="õ" d="M294 396q-59 0 -79 -30t-20 -120q0 -88 20 -118t79 -30q57 0 77.5 30t20.5 118q0 89 -20 119.5t-78 30.5zM294 507q138 0 195.5 -59.5t57.5 -201.5t-57.5 -200.5t-195.5 -58.5q-139 0 -196.5 58.5t-57.5 200.5q0 143 57.5 202t196.5 59zM184 575h-64q-3 19 -3 36 q0 51 22.5 78t56.5 27h6q36 -3 86 -23.5t73 -24.5q4 -1 12 -1q16 0 21.5 10t5.5 34h63q3 -21 3 -38q0 -48 -21.5 -75t-56.5 -27h-6q-38 3 -90.5 24.5t-70.5 24.5q-2 0 -5.5 0.5t-4.5 0.5q-17 0 -22 -10.5t-5 -35.5z"/>
<glyph glyph-name="odieresis" horiz-adv-x="587" unicode="ö" d="M294 396q-59 0 -79 -30t-20 -120q0 -88 20 -118t79 -30q57 0 77.5 30t20.5 118q0 89 -20 119.5t-78 30.5zM294 507q138 0 195.5 -59.5t57.5 -201.5t-57.5 -200.5t-195.5 -58.5q-139 0 -196.5 58.5t-57.5 200.5q0 143 57.5 202t196.5 59zM360 704h49q33 0 33 -33v-58 q0 -33 -33 -33h-49q-33 0 -33 33v58q0 33 33 33zM178 704h49q32 0 32 -33v-58q0 -33 -32 -33h-49q-32 0 -32 33v58q0 33 32 33z"/>
<glyph glyph-name="divide" horiz-adv-x="553" unicode="÷" d="M257 176h36q31 0 42.5 -11.5t11.5 -42.5v-33q0 -31 -11.5 -42.5t-42.5 -11.5h-36q-30 0 -41.5 11.5t-11.5 42.5v33q0 31 11.5 42.5t41.5 11.5zM506 241h-459v105h459v-105zM257 550h36q31 0 42.5 -11.5t11.5 -42.5v-34q0 -30 -11.5 -41.5t-42.5 -11.5h-36 q-30 0 -41.5 11.5t-11.5 41.5v34q0 31 11.5 42.5t41.5 11.5z"/>
<glyph glyph-name="oslash" horiz-adv-x="587" unicode="ø" d="M294 98q57 0 77.5 30t20.5 118q0 89 -20 119.5t-78 30.5q-59 0 -79 -30t-20 -120q0 -88 20 -118t79 -30zM498 546l-37 -75q86 -55 86 -225q0 -142 -57.5 -200.5t-195.5 -58.5q-39 0 -64 4l-43 -90l-102 50l36 75q-81 55 -81 220q0 143 57.5 202t196.5 59q32 0 57 -3 l45 93z"/>
<glyph glyph-name="ugrave" d="M529 493v-493h-117l-11 68q-102 -81 -204 -81q-139 0 -139 137v369h148v-324q-1 -32 11 -45t42 -13q43 0 123 41v341h147zM326 548l-226 109l68 102l201 -148z" unicode="ù"/>
<glyph glyph-name="uacute" d="M529 493v-493h-117l-11 68q-102 -81 -204 -81q-139 0 -139 137v369h148v-324q-1 -32 11 -45t42 -13q43 0 123 41v341h147zM257 548l-43 63l201 148l67 -102z" unicode="ú"/>
<glyph glyph-name="ucircumflex" d="M529 493v-493h-117l-11 68q-102 -81 -204 -81q-139 0 -139 137v369h148v-324q-1 -32 11 -45t42 -13q43 0 123 41v341h147zM151 544l-41 58l134 132h107l133 -135l-42 -55l-140 95h-8z" unicode="û"/>
<glyph glyph-name="udieresis" d="M529 493v-493h-117l-11 68q-102 -81 -204 -81q-139 0 -139 137v369h148v-324q-1 -32 11 -45t42 -13q43 0 123 41v341h147zM412 588h-49q-33 0 -33 33v57q0 33 33 33h49q33 0 33 -33v-57q0 -33 -33 -33zM230 588h-49q-32 0 -32 33v57q0 33 32 33h49q32 0 32 -33v-57 q0 -33 -32 -33z" unicode="ü"/>
<glyph glyph-name="yacute" horiz-adv-x="562" unicode="ý" d="M554 493l-175 -500q-29 -82 -86.5 -139t-151.5 -57q-10 0 -34 2l-12 87q60 16 94 41.5t53 68.5l2 4h-28q-37 0 -48 36l-161 457h158l92 -319q9 -35 15 -74h13q3 12 10 37.5t10 36.5l91 319h158zM244 540l-43 64l201 148l67 -102z"/>
<glyph glyph-name="thorn" horiz-adv-x="594" unicode="þ" d="M209 348v-230q62 -24 104 -24q49 0 68 30t19 117q0 89 -18.5 119.5t-64.5 30.5t-108 -43zM209 700v-135q0 -55 -5 -120q68 60 170 60q95 0 136.5 -64t41.5 -199q0 -144 -43 -199.5t-140 -55.5q-96 0 -164 41q4 -43 4 -99v-119h-148v890h148z"/>
<glyph glyph-name="ydieresis" horiz-adv-x="562" unicode="ÿ" d="M554 493l-175 -500q-29 -82 -86.5 -139t-151.5 -57q-10 0 -34 2l-12 87q60 16 94 41.5t53 68.5l2 4h-28q-37 0 -48 36l-161 457h158l92 -319q9 -35 15 -74h13q3 12 10 37.5t10 36.5l91 319h158zM399 580h-49q-33 0 -33 33v58q0 33 33 33h49q32 0 32 -33v-58 q0 -33 -32 -33zM217 580h-49q-32 0 -32 33v58q0 33 32 33h49q32 0 32 -33v-58q0 -33 -32 -33z"/>
<glyph glyph-name="Amacron" horiz-adv-x="650" unicode="Ā" d="M411 299l-58 211q-12 50 -14 65h-27q-2 -10 -7 -32t-8 -33l-58 -211h172zM444 181h-237l-50 -181h-156l199 650q4 18 19 29t34 11h144q43 0 53 -40l199 -650h-155zM476 776h-299v96h299v-96z"/>
<glyph glyph-name="amacron" horiz-adv-x="567" unicode="ā" d="M182 169v-19q0 -51 58 -51q60 0 123 48v69h-133q-48 -1 -48 -47zM74 383l-14 100q133 24 257 24q100 0 147 -40.5t47 -140.5v-326h-117l-15 75q-74 -87 -182 -87q-71 0 -116 37.5t-45 104.5v50q0 59 40 92t111 33h176v22q-1 38 -17.5 51t-63.5 13q-82 0 -208 -8zM433 594 h-299v95h299v-95z"/>
<glyph glyph-name="Abreve" horiz-adv-x="650" unicode="Ă" d="M411 299l-58 211q-12 50 -14 65h-27q-2 -10 -7 -32t-8 -33l-58 -211h172zM444 181h-237l-50 -181h-156l199 650q4 18 19 29t34 11h144q43 0 53 -40l199 -650h-155zM419 901l71 -10q1 -6 1 -17q0 -58 -45 -96t-120 -38t-120.5 38t-45.5 96q0 11 1 17l70 10q0 -64 95 -64 q93 0 93 64z"/>
<glyph glyph-name="abreve" horiz-adv-x="567" unicode="ă" d="M182 169v-19q0 -51 58 -51q60 0 123 48v69h-133q-48 -1 -48 -47zM74 383l-14 100q133 24 257 24q100 0 147 -40.5t47 -140.5v-326h-117l-15 75q-74 -87 -182 -87q-71 0 -116 37.5t-45 104.5v50q0 59 40 92t111 33h176v22q-1 38 -17.5 51t-63.5 13q-82 0 -208 -8zM376 719 l70 -10q1 -6 1 -18q0 -57 -45 -95t-119 -38q-76 0 -121 38t-45 96q0 11 1 17l70 10q0 -65 95 -65q93 0 93 65z"/>
<glyph glyph-name="Aogonek" horiz-adv-x="650" unicode="Ą" d="M411 299l-58 211q-12 50 -14 65h-27q-2 -10 -7 -32t-8 -33l-58 -211h172zM652 -138l12 -55q-53 -21 -95 -21q-41 0 -63 19.5t-22 50.5q0 17 6 33q17 55 97 111h-93l-50 181h-237l-50 -181h-156l199 650q4 18 19 29t34 11h144q43 0 53 -40l199 -650q-43 -60 -60 -100 q-6 -12 -6 -21q0 -23 32 -23q16 0 37 6z"/>
<glyph glyph-name="aogonek" horiz-adv-x="567" unicode="ą" d="M182 169v-19q0 -51 58 -51q60 0 123 48v69h-133q-48 -1 -48 -47zM514 -138l12 -55q-53 -21 -95 -21q-41 0 -63 19.5t-22 50.5q0 17 6 33q17 55 97 111h-55l-15 75q-74 -87 -182 -87q-71 0 -116 37.5t-45 104.5v50q0 59 40 92t111 33h176v22q-1 38 -17.5 51t-63.5 13 q-82 0 -208 -8l-14 100q133 24 257 24q100 0 147 -40.5t47 -140.5v-326q-42 -57 -60 -100q-6 -12 -6 -21q0 -23 32 -23q16 0 37 6z"/>
<glyph glyph-name="Cacute" horiz-adv-x="586" unicode="Ć" d="M545 129l13 -113q-90 -28 -221 -28q-160 0 -225 80t-65 277t65 277t225 80q116 0 207 -23l-13 -114q-81 5 -194 5q-75 0 -102.5 -47.5t-27.5 -177.5t27.5 -177.5t102.5 -47.5q139 0 208 9zM514 832l-225 -109l-43 63l201 149z"/>
<glyph glyph-name="cacute" horiz-adv-x="507" unicode="ć" d="M465 117l13 -96q-76 -33 -191 -33q-136 0 -191.5 58.5t-55.5 200.5q0 143 56 201.5t193 58.5q112 0 182 -31l-16 -92q-108 2 -141 2q-68 0 -93.5 -29t-25.5 -110t25.5 -110t93.5 -29q87 0 151 9zM461 650l-225 -110l-44 64l202 148z"/>
<glyph glyph-name="Cdotaccent" horiz-adv-x="586" unicode="Ċ" d="M545 129l13 -113q-90 -28 -221 -28q-160 0 -225 80t-65 277t65 277t225 80q116 0 207 -23l-13 -114q-81 5 -194 5q-75 0 -102.5 -47.5t-27.5 -177.5t27.5 -177.5t102.5 -47.5q139 0 208 9zM307 887h45q42 0 42 -41v-52q0 -41 -42 -41h-45q-42 0 -42 41v52q0 41 42 41z "/>
<glyph glyph-name="cdotaccent" horiz-adv-x="507" unicode="ċ" d="M465 117l13 -96q-76 -33 -191 -33q-136 0 -191.5 58.5t-55.5 200.5q0 143 56 201.5t193 58.5q112 0 182 -31l-16 -92q-108 2 -141 2q-68 0 -93.5 -29t-25.5 -110t25.5 -110t93.5 -29q87 0 151 9zM254 704h45q42 0 42 -41v-52q0 -41 -42 -41h-45q-42 0 -42 41v52 q0 41 42 41z"/>
<glyph glyph-name="Ccaron" horiz-adv-x="586" unicode="Č" d="M545 129l13 -113q-90 -28 -221 -28q-160 0 -225 80t-65 277t65 277t225 80q116 0 207 -23l-13 -114q-81 5 -194 5q-75 0 -102.5 -47.5t-27.5 -177.5t27.5 -177.5t102.5 -47.5q139 0 208 9zM513 870l-152 -131h-62l-152 131l41 58l138 -79h8l138 79z"/>
<glyph glyph-name="ccaron" horiz-adv-x="507" unicode="č" d="M465 117l13 -96q-76 -33 -191 -33q-136 0 -191.5 58.5t-55.5 200.5q0 143 56 201.5t193 58.5q112 0 182 -31l-16 -92q-108 2 -141 2q-68 0 -93.5 -29t-25.5 -110t25.5 -110t93.5 -29q87 0 151 9zM460 688l-153 -131h-61l-152 131l40 58l139 -80h8l138 80z"/>
<glyph glyph-name="Dcaron" horiz-adv-x="680" unicode="Ď" d="M222 579v-467q17 0 55.5 -0.5t60.5 -0.5q77 0 105.5 49t28.5 185t-28.5 185.5t-105.5 49.5zM70 0v690q142 9 268 9q165 0 229.5 -76t64.5 -278t-64.5 -278t-229.5 -76q-126 0 -268 9zM298 739l-152 131l41 58l138 -79h8l138 79l41 -58l-152 -131h-62z"/>
<glyph glyph-name="dcaron" horiz-adv-x="594" unicode="ď" d="M385 150v228q-67 19 -105 19q-50 0 -68.5 -28t-18.5 -117q0 -85 18 -113.5t64 -28.5q31 0 53 8.5t57 31.5zM385 700h148v-700h-117l-12 72q-71 -84 -188 -84q-92 0 -133.5 66.5t-41.5 196.5q0 142 46 199t143 57q95 0 160 -44q-5 55 -5 103v134zM696 665v-47 q0 -74 -43 -133l-54 13q13 40 13 94q-36 0 -36 33l1 40q1 21 11 29t34 8h30q25 0 34.5 -8t9.5 -29z"/>
<glyph glyph-name="Dcroat" horiz-adv-x="683" unicode="Đ" d="M225 323v-211q17 0 56 -0.5t61 -0.5q77 0 105 49.5t28 184.5q0 136 -28 185.5t-105 49.5l-117 -1v-179h124v-77h-124zM73 400v290q142 9 269 9q164 0 228.5 -76t64.5 -278t-64.5 -278t-228.5 -76q-127 0 -269 9v323h-57v77h57z"/>
<glyph glyph-name="dcroat" d="M385 150v228q-67 19 -105 19q-50 0 -68.5 -28t-18.5 -117q0 -85 18 -113.5t64 -28.5q31 0 53 8.5t57 31.5zM594 559h-61v-559h-117l-12 72q-71 -84 -188 -84q-92 0 -133.5 66.5t-41.5 196.5q0 142 46 199t143 57q95 0 160 -44q-5 52 -5 96h-130v70h130v71h148v-71h61v-70 z" unicode="đ"/>
<glyph glyph-name="Emacron" horiz-adv-x="576" unicode="Ē" d="M529 119l7 -112q-94 -10 -320 -10q-69 0 -110 37.5t-42 101.5v418q1 64 42 101.5t110 37.5q226 0 320 -10l-7 -113h-265q-25 0 -36 -12t-11 -39v-105h275v-110h-275v-133q0 -28 11 -40t36 -12h265zM465 788h-299v95h299v-95z"/>
<glyph glyph-name="emacron" horiz-adv-x="560" unicode="ē" d="M194 286h140q27 0 36.5 13t9.5 38q0 35 -18 48.5t-66 13.5q-57 0 -78 -22.5t-24 -90.5zM375 197h-178q7 -54 32.5 -72.5t84.5 -18.5q79 0 184 11l14 -92q-77 -37 -215 -37q-139 0 -198 60t-59 198q0 145 57.5 203t193.5 58q123 0 178 -42.5t56 -129.5q0 -69 -35.5 -103.5 t-114.5 -34.5zM443 594h-299v95h299v-95z"/>
<glyph glyph-name="Edotaccent" horiz-adv-x="576" unicode="Ė" d="M529 119l7 -112q-94 -10 -320 -10q-69 0 -110 37.5t-42 101.5v418q1 64 42 101.5t110 37.5q226 0 320 -10l-7 -113h-265q-25 0 -36 -12t-11 -39v-105h275v-110h-275v-133q0 -28 11 -40t36 -12h265zM338 764h-45q-42 0 -42 41v52q0 41 42 41h45q42 0 42 -41v-52 q0 -41 -42 -41z"/>
<glyph glyph-name="edotaccent" horiz-adv-x="560" unicode="ė" d="M194 286h140q27 0 36.5 13t9.5 38q0 35 -18 48.5t-66 13.5q-57 0 -78 -22.5t-24 -90.5zM375 197h-178q7 -54 32.5 -72.5t84.5 -18.5q79 0 184 11l14 -92q-77 -37 -215 -37q-139 0 -198 60t-59 198q0 145 57.5 203t193.5 58q123 0 178 -42.5t56 -129.5q0 -69 -35.5 -103.5 t-114.5 -34.5zM316 570h-45q-42 0 -42 41v52q0 41 42 41h45q42 0 42 -41v-52q0 -41 -42 -41z"/>
<glyph glyph-name="Eogonek" horiz-adv-x="576" unicode="Ę" d="M539 -131l12 -54q-53 -21 -96 -21q-41 0 -62.5 19t-21.5 50q0 17 6 33q17 54 89 106q-79 -5 -250 -5q-69 0 -110 37.5t-42 101.5v418q1 64 42 101.5t110 37.5q226 0 320 -10l-7 -113h-265q-25 0 -36 -12t-11 -39v-105h275v-110h-275v-133q0 -28 11 -40t36 -12h265l7 -112 q-43 -60 -60 -100q-6 -12 -6 -21q0 -23 32 -23q16 0 37 6z"/>
<glyph glyph-name="eogonek" horiz-adv-x="560" unicode="ę" d="M194 286h140q27 0 36.5 13t9.5 38q0 35 -18 48.5t-66 13.5q-57 0 -78 -22.5t-24 -90.5zM514 -113l13 -55q-53 -21 -95 -21t-64 20t-22 51q0 16 6 32q14 41 61 83q-50 -9 -116 -9q-139 0 -198 60t-59 198q0 145 57.5 203t193.5 58q123 0 178 -42.5t56 -129.5 q0 -69 -35.5 -103.5t-114.5 -34.5h-178q7 -54 32.5 -72.5t84.5 -18.5q79 0 184 11l14 -92q-44 -62 -61 -101q-5 -10 -5 -20q0 -23 31 -23q16 0 37 6z"/>
<glyph glyph-name="Ecaron" horiz-adv-x="576" unicode="Ě" d="M529 119l7 -112q-94 -10 -320 -10q-69 0 -110 37.5t-42 101.5v418q1 64 42 101.5t110 37.5q226 0 320 -10l-7 -113h-265q-25 0 -36 -12t-11 -39v-105h275v-110h-275v-133q0 -28 11 -40t36 -12h265zM285 751l-152 131l40 58l139 -80h8l138 80l41 -58l-153 -131h-61z"/>
<glyph glyph-name="ecaron" horiz-adv-x="560" unicode="ě" d="M194 286h140q27 0 36.5 13t9.5 38q0 35 -18 48.5t-66 13.5q-57 0 -78 -22.5t-24 -90.5zM375 197h-178q7 -54 32.5 -72.5t84.5 -18.5q79 0 184 11l14 -92q-77 -37 -215 -37q-139 0 -198 60t-59 198q0 145 57.5 203t193.5 58q123 0 178 -42.5t56 -129.5q0 -69 -35.5 -103.5 t-114.5 -34.5zM263 557l-152 131l40 58l139 -80h8l138 80l41 -58l-153 -131h-61z"/>
<glyph glyph-name="Gbreve" horiz-adv-x="645" unicode="Ğ" d="M592 398v-398h-112l-14 69q-80 -82 -199 -82q-116 0 -168 85t-52 275q0 202 68.5 279t240.5 77q125 0 212 -24l-12 -112q-113 5 -195 5q-46 0 -72.5 -7.5t-46.5 -32.5t-27 -69.5t-7 -120.5q0 -129 24 -177t89 -48q60 0 124 35v246h147zM431 901l71 -10q1 -6 1 -17 q0 -58 -45 -96t-120 -38t-120.5 38t-45.5 96q0 11 1 17l71 10q-1 -32 22.5 -48t71.5 -16q93 0 93 64z"/>
<glyph glyph-name="gbreve" horiz-adv-x="579" unicode="ğ" d="M321 19l-124 13q-32 -26 -32 -57q0 -36 22 -46t95 -10t96.5 10.5t23.5 43.5q0 26 -15 33t-66 13zM277 285q54 0 74.5 14t20.5 50q0 37 -20 50t-75 13t-75.5 -13t-20.5 -50q0 -36 20.5 -50t75.5 -14zM559 428l-62 -8q12 -28 12 -71q0 -86 -51.5 -122t-180.5 -36 q-43 0 -85 5q-7 -12 -7 -23q0 -32 36 -36l179 -21q76 -9 109.5 -44t33.5 -103q0 -94 -56.5 -127t-202.5 -33q-152 0 -206 31.5t-54 115.5q0 38 17.5 62.5t60.5 44.5q-28 27 -28 68q0 59 44 84q-73 34 -73 133q0 87 52 123t181 36q78 0 129 -14h159zM374 719l70 -10 q1 -6 1 -18q0 -58 -45 -95.5t-120 -37.5q-74 0 -119.5 38t-45.5 95q0 12 1 18l70 10q0 -65 95 -65q93 0 93 65z"/>
<glyph glyph-name="Gdotaccent" horiz-adv-x="645" unicode="Ġ" d="M592 398v-398h-112l-14 69q-80 -82 -199 -82q-116 0 -168 85t-52 275q0 202 68.5 279t240.5 77q125 0 212 -24l-12 -112q-113 5 -195 5q-46 0 -72.5 -7.5t-46.5 -32.5t-27 -69.5t-7 -120.5q0 -129 24 -177t89 -48q60 0 124 35v246h147zM361 753h-45q-42 0 -42 41v52 q0 41 42 41h45q42 0 42 -41v-52q0 -41 -42 -41z"/>
<glyph glyph-name="gdotaccent" horiz-adv-x="579" unicode="ġ" d="M321 19l-124 13q-32 -26 -32 -57q0 -36 22 -46t95 -10t96.5 10.5t23.5 43.5q0 26 -15 33t-66 13zM277 285q54 0 74.5 14t20.5 50q0 37 -20 50t-75 13t-75.5 -13t-20.5 -50q0 -36 20.5 -50t75.5 -14zM559 428l-62 -8q12 -28 12 -71q0 -86 -51.5 -122t-180.5 -36 q-43 0 -85 5q-7 -12 -7 -23q0 -32 36 -36l179 -21q76 -9 109.5 -44t33.5 -103q0 -94 -56.5 -127t-202.5 -33q-152 0 -206 31.5t-54 115.5q0 38 17.5 62.5t60.5 44.5q-28 27 -28 68q0 59 44 84q-73 34 -73 133q0 87 52 123t181 36q78 0 129 -14h159zM303 570h-45 q-42 0 -42 41v52q0 41 42 41h45q42 0 42 -41v-52q0 -41 -42 -41z"/>
<glyph glyph-name="Gcommaaccent" horiz-adv-x="645" unicode="Ģ" d="M320 -52h32q26 0 36 -9.5t10 -32.5v-52q0 -81 -46 -146l-56 14q13 45 13 104q-38 0 -38 37l1 43q1 23 11.5 32.5t36.5 9.5zM592 398v-398h-112l-14 69q-80 -82 -199 -82q-116 0 -168 85t-52 275q0 202 68.5 279t240.5 77q125 0 212 -24l-12 -112q-113 5 -195 5 q-46 0 -72.5 -7.5t-46.5 -32.5t-27 -69.5t-7 -120.5q0 -129 24 -177t89 -48q60 0 124 35v246h147z"/>
<glyph glyph-name="gcommaaccent" horiz-adv-x="579" unicode="ģ" d="M321 19l-124 13q-32 -26 -32 -57q0 -36 22 -46t95 -10t96.5 10.5t23.5 43.5q0 26 -15 33t-66 13zM277 285q54 0 74.5 14t20.5 50q0 37 -20 50t-75 13t-75.5 -13t-20.5 -50q0 -36 20.5 -50t75.5 -14zM559 428l-62 -8q12 -28 12 -71q0 -86 -51.5 -122t-180.5 -36 q-43 0 -85 5q-7 -12 -7 -23q0 -32 36 -36l179 -21q76 -9 109.5 -44t33.5 -103q0 -94 -56.5 -127t-202.5 -33q-152 0 -206 31.5t-54 115.5q0 38 17.5 62.5t60.5 44.5q-28 27 -28 68q0 59 44 84q-73 34 -73 133q0 87 52 123t181 36q78 0 129 -14h159zM309 551h-31 q-26 0 -36.5 9t-10.5 33v51q0 80 46 147l56 -15q-13 -49 -13 -103q38 0 38 -37l-1 -43q-1 -24 -11.5 -33t-36.5 -9z"/>
<glyph glyph-name="Hbar" horiz-adv-x="693" unicode="Ħ" d="M468 513h-243v-87h243v87zM681 513h-60v-513h-153v308h-243v-308h-152v513h-60v72h60v105h152v-105h243v105h153v-105h60v-72z"/>
<glyph glyph-name="hbar" horiz-adv-x="603" unicode="ħ" d="M213 559v-30q0 -59 -9 -103q104 81 202 81q68 0 103.5 -35t35.5 -102v-370h-148v324q0 33 -10 45.5t-37 12.5q-52 0 -138 -45v-337h-148v559h-65v70h65v71h149v-71h125v-70h-125z"/>
<glyph glyph-name="Imacron" horiz-adv-x="292" unicode="Ī" d="M222 0h-152v690h152v-690zM296 776h-299v96h299v-96z"/>
<glyph glyph-name="imacron" horiz-adv-x="278" unicode="ī" d="M213 0h-148v493h148v-493zM290 594h-300v95h300v-95z"/>
<glyph glyph-name="Iogonek" horiz-adv-x="292" unicode="Į" d="M222 0h-19q-42 -57 -61 -100q-5 -10 -5 -21q0 -23 32 -23q15 0 36 6l13 -55q-53 -21 -95 -21t-64 20t-22 51q0 16 6 32q20 57 98 111h-71v690h152v-690z"/>
<glyph glyph-name="iogonek" horiz-adv-x="278" unicode="į" d="M202 -138l13 -55q-53 -21 -95 -21t-64 20t-22 51q0 16 6 32q20 57 98 111h-73v493h148v-493h-13q-42 -57 -61 -100q-5 -10 -5 -21q0 -23 32 -23q15 0 36 6zM162 570h-45q-42 0 -42 41v52q0 41 42 41h45q42 0 42 -41v-52q0 -41 -42 -41z"/>
<glyph glyph-name="Idotaccent" horiz-adv-x="292" unicode="İ" d="M222 0h-152v690h152v-690zM124 887h45q42 0 42 -41v-52q0 -41 -42 -41h-45q-42 0 -42 41v52q0 41 42 41z"/>
<glyph glyph-name="dotlessi" horiz-adv-x="278" unicode="ı" d="M213 0h-148v493h148v-493z"/>
<glyph glyph-name="IJ" horiz-adv-x="660" unicode="Ĳ" d="M593 690v-545q0 -75 -40.5 -116t-114.5 -41q-83 0 -126 20l16 102h47q67 0 67 53v527h151zM222 0h-152v690h152v-690z"/>
<glyph glyph-name="ij" horiz-adv-x="554" unicode="ĳ" d="M489 493v-470q0 -69 -34 -128.5t-92 -91.5l-82 65q61 69 61 155v470h147zM212 0h-147v493h147v-493zM105 711h66q43 0 43 -43v-54q0 -43 -43 -43h-66q-43 0 -43 43v54q0 43 43 43zM382 715h66q42 0 42 -43v-54q0 -43 -42 -43h-66q-43 0 -43 43v54q0 43 43 43z"/>
<glyph glyph-name="Kcommaaccent" horiz-adv-x="631" unicode="Ķ" d="M314 -52h32q26 0 36.5 -9.5t11.5 -32.5v-52q-1 -80 -48 -146l-56 14q12 43 14 104q-37 0 -39 37l1 43q2 23 12.5 32.5t35.5 9.5zM626 0h-170l-182 304h-59q7 -40 7 -66v-238h-152v690h152v-195q0 -44 -7 -82h59l175 277h165l-178 -275q-17 -30 -50 -55v-4q36 -25 58 -61z "/>
<glyph glyph-name="kcommaaccent" horiz-adv-x="557" unicode="ķ" d="M276 -48h32q26 0 36 -9.5t10 -32.5v-52q0 -81 -46 -146l-56 14q13 46 13 104q-38 0 -38 36l1 44q1 23 11.5 32.5t36.5 9.5zM553 0h-166l-138 229h-47q7 -45 7 -74v-155h-148v700h148v-289q0 -49 -7 -90h46l122 172h166l-128 -171q-16 -27 -46 -47v-2q25 -17 46 -53z"/>
<glyph glyph-name="Lacute" horiz-adv-x="532" unicode="Ĺ" d="M220 690v-515q0 -27 12.5 -39t41.5 -12h237l7 -116q-101 -11 -292 -11q-80 0 -119 40t-39 107v546h152zM333 832l-226 -109l-43 63l201 149z"/>
<glyph glyph-name="lacute" horiz-adv-x="327" unicode="ĺ" d="M209 700v-539q0 -50 56 -50h40l17 -103q-38 -20 -118 -20q-66 0 -104 35.5t-38 100.5v576h147zM325 847l-225 -109l-44 63l201 148z"/>
<glyph glyph-name="Lcommaaccent" horiz-adv-x="532" unicode="Ļ" d="M279 -52h31q26 0 36.5 -9.5t10.5 -32.5v-52q-1 -81 -47 -146l-56 14q14 49 14 104q-38 0 -38 37l1 43q1 23 11.5 32.5t36.5 9.5zM220 690v-515q0 -27 12.5 -39t41.5 -12h237l7 -116q-101 -11 -292 -11q-80 0 -119 40t-39 107v546h152z"/>
<glyph glyph-name="lcommaaccent" horiz-adv-x="327" unicode="ļ" d="M166 -52h32q25 0 35.5 -9.5t10.5 -32.5v-52q0 -79 -46 -146l-56 14q13 51 13 104q-38 0 -38 37l1 43q1 23 11.5 32.5t36.5 9.5zM209 700v-539q0 -50 56 -50h40l17 -103q-38 -20 -118 -20q-66 0 -104 35.5t-38 100.5v576h147z"/>
<glyph glyph-name="Lcaron" horiz-adv-x="532" unicode="Ľ" d="M220 690v-515q0 -27 12.5 -39t41.5 -12h237l7 -116q-101 -11 -292 -11q-80 0 -119 40t-39 107v546h152zM355 691h32q26 0 36 -9t11 -32v-52q-1 -81 -47 -147l-56 15q13 44 13 104q-36 0 -38 36l1 44q1 23 11.5 32t36.5 9z"/>
<glyph glyph-name="lcaron" horiz-adv-x="327" unicode="ľ" d="M209 700v-539q0 -50 56 -50h40l17 -103q-38 -20 -118 -20q-66 0 -104 35.5t-38 100.5v576h147zM298 702h30q25 0 34.5 -8t9.5 -29v-47q0 -73 -44 -133l-53 13q11 39 13 94q-35 0 -37 33l1 40q2 21 11.5 29t34.5 8z"/>
<glyph glyph-name="Ldot" horiz-adv-x="532" unicode="Ŀ" d="M435 342h-46q-42 0 -42 41v52q0 41 42 41h46q42 0 42 -41v-52q0 -41 -42 -41zM220 690v-515q0 -27 12.5 -39t41.5 -12h237l7 -116q-101 -11 -292 -11q-80 0 -119 40t-39 107v546h152z"/>
<glyph glyph-name="ldot" horiz-adv-x="388" unicode="ŀ" d="M351 323h-46q-42 0 -42 41v52q0 41 42 41h46q41 0 41 -41v-52q0 -41 -41 -41zM209 700v-539q0 -50 56 -50h40l17 -103q-38 -20 -118 -20q-66 0 -104 35.5t-38 100.5v576h147z"/>
<glyph glyph-name="Lslash" horiz-adv-x="536" unicode="Ł" d="M515 124l7 -116q-101 -11 -292 -11q-80 0 -119 40t-39 107v167l-58 -24v82l58 23v298h152v-237l109 43v-82l-109 -43v-196q0 -27 12.5 -39t41.5 -12h237z"/>
<glyph glyph-name="lslash" horiz-adv-x="358" unicode="ł" d="M329 111l17 -103q-38 -20 -117 -20q-67 0 -105 35.5t-38 100.5v185l-74 -30v82l74 30v309h147v-250l96 38v-82l-96 -38v-207q0 -50 56 -50h40z"/>
<glyph glyph-name="Nacute" horiz-adv-x="722" unicode="Ń" d="M652 690v-635q0 -55 -54 -55h-95q-23 0 -36 10.5t-25 34.5l-181 368q-34 73 -42 107h-11q7 -50 7 -110v-410h-145v635q0 55 55 55h93q23 0 36 -10.5t25 -34.5l175 -357q25 -50 50 -111h10q-6 78 -6 116v397h144zM553 832l-225 -109l-44 63l201 149z"/>
<glyph glyph-name="nacute" horiz-adv-x="599" unicode="ń" d="M181 493l11 -73q107 87 211 87q67 0 102.5 -35t35.5 -102v-370h-147v324q0 33 -10.5 45.5t-37.5 12.5q-47 0 -137 -45v-337h-148v493h120zM267 540l-44 64l202 148l67 -102z"/>
<glyph glyph-name="Ncommaaccent" horiz-adv-x="722" unicode="Ņ" d="M342 -52h31q26 0 36.5 -9.5t10.5 -32.5v-52q-1 -81 -47 -146l-55 14q13 51 13 104q-38 0 -38 37l1 43q1 23 11.5 32.5t36.5 9.5zM652 690v-635q0 -55 -54 -55h-95q-23 0 -36 10.5t-25 34.5l-181 368q-34 73 -42 107h-11q7 -50 7 -110v-410h-145v635q0 55 55 55h93 q23 0 36 -10.5t25 -34.5l175 -357q25 -50 50 -111h10q-6 78 -6 116v397h144z"/>
<glyph glyph-name="ncommaaccent" horiz-adv-x="599" unicode="ņ" d="M279 -48h31q26 0 36.5 -9.5t10.5 -32.5v-52q-1 -81 -46 -146l-56 14q13 51 13 104q-38 0 -38 36l1 44q1 23 11.5 32.5t36.5 9.5zM181 493l11 -73q107 87 211 87q67 0 102.5 -35t35.5 -102v-370h-147v324q0 33 -10.5 45.5t-37.5 12.5q-47 0 -137 -45v-337h-148v493h120z "/>
<glyph glyph-name="Ncaron" horiz-adv-x="722" unicode="Ň" d="M652 690v-635q0 -55 -54 -55h-95q-23 0 -36 10.5t-25 34.5l-181 368q-34 73 -42 107h-11q7 -50 7 -110v-410h-145v635q0 55 55 55h93q23 0 36 -10.5t25 -34.5l175 -357q25 -50 50 -111h10q-6 78 -6 116v397h144zM552 870l-153 -131h-61l-153 131l41 58l138 -79h8l138 79z "/>
<glyph glyph-name="ncaron" horiz-adv-x="599" unicode="ň" d="M181 493l11 -73q107 87 211 87q67 0 102.5 -35t35.5 -102v-370h-147v324q0 33 -10.5 45.5t-37.5 12.5q-47 0 -137 -45v-337h-148v493h120zM277 557l-152 131l41 58l138 -80h8l138 80l41 -58l-153 -131h-61z"/>
<glyph glyph-name="Eng" horiz-adv-x="722" unicode="Ŋ" d="M652 690v-746q0 -72 -38 -113t-101 -41h-2q-69 0 -116 19l16 96h42q63 0 63 51v48h-24q-15 0 -36 39l-195 358q-19 35 -44 107h-9q7 -50 7 -107v-401h-145v635q0 55 55 55h79q23 0 36 -10t27 -35l186 -345q22 -40 50 -111h10q-6 57 -6 113v388h145z"/>
<glyph glyph-name="eng" horiz-adv-x="599" unicode="ŋ" d="M176 493l13 -75q107 89 213 89q139 0 139 -137v-416q0 -74 -36 -114t-104 -40q-76 0 -118 19l16 96h39q56 0 56 52v357q0 30 -11 41.5t-39 11.5q-48 0 -135 -41v-336h-148v493h115z"/>
<glyph glyph-name="Omacron" horiz-adv-x="684" unicode="Ō" d="M342 580q-78 0 -106.5 -49t-28.5 -186t28.5 -186t106.5 -49t106.5 49t28.5 186t-28.5 186t-106.5 49zM342 703q166 0 231 -76.5t65 -281.5t-65 -281.5t-231 -76.5t-230.5 76.5t-64.5 281.5t64.5 281.5t230.5 76.5zM491 776h-299v96h299v-96z"/>
<glyph glyph-name="omacron" horiz-adv-x="587" unicode="ō" d="M294 396q-59 0 -79 -30t-20 -120q0 -88 20 -118t79 -30q57 0 77.5 30t20.5 118q0 89 -20 119.5t-78 30.5zM294 507q138 0 195.5 -59.5t57.5 -201.5t-57.5 -200.5t-195.5 -58.5q-139 0 -196.5 58.5t-57.5 200.5q0 143 57.5 202t196.5 59zM444 594h-299v95h299v-95z"/>
<glyph glyph-name="Ohungarumlaut" horiz-adv-x="684" unicode="Ő" d="M342 580q-78 0 -106.5 -49t-28.5 -186t28.5 -186t106.5 -49t106.5 49t28.5 186t-28.5 186t-106.5 49zM342 703q166 0 231 -76.5t65 -281.5t-65 -281.5t-231 -76.5t-230.5 76.5t-64.5 281.5t64.5 281.5t230.5 76.5zM386 881l-152 -167l-60 48l115 185zM576 881l-153 -167 l-59 47l114 186z"/>
<glyph glyph-name="ohungarumlaut" horiz-adv-x="587" unicode="ő" d="M294 396q-59 0 -79 -30t-20 -120q0 -88 20 -118t79 -30q57 0 77.5 30t20.5 118q0 89 -20 119.5t-78 30.5zM294 507q138 0 195.5 -59.5t57.5 -201.5t-57.5 -200.5t-195.5 -58.5q-139 0 -196.5 58.5t-57.5 200.5q0 143 57.5 202t196.5 59zM339 699l-152 -167l-60 47 l115 185zM529 699l-153 -167l-59 47l114 185z"/>
<glyph glyph-name="OE" horiz-adv-x="945" unicode="Œ" d="M445 144v402q0 16 1 24q-45 10 -106 10q-77 0 -104.5 -48.5t-27.5 -186.5q0 -137 27.5 -186t104.5 -49q64 0 106 11q-1 8 -1 23zM898 119l7 -112q-94 -10 -323 -10q-42 0 -77 22q-68 -32 -165 -32q-111 0 -173 32t-91 109t-29 217t29 217t91 109t173 32q97 0 175 -29 q33 19 73 19q225 0 317 -10l-7 -113h-247q-28 0 -40.5 -12t-12.5 -39v-106h264v-108h-264v-134q0 -28 12.5 -40t40.5 -12h247z"/>
<glyph glyph-name="oe" horiz-adv-x="905" unicode="œ" d="M292 98q54 0 75 25t23 96v28v28q-2 71 -23 96t-74 25q-58 0 -78 -30t-20 -120q0 -88 20 -118t77 -30zM540 286h132q30 0 41.5 10.5t11.5 38.5v9q-2 29 -22.5 41.5t-67.5 12.5h-4q-49 0 -68.5 -23t-22.5 -89zM698 200h-156q7 -57 32.5 -76t86.5 -19q81 0 181 12l14 -93 q-77 -37 -213 -37q-117 0 -176 44q-57 -44 -175 -44q-138 0 -195 58.5t-57 200.5q0 143 57 202t195 59q115 0 173 -42q56 41 167 41q237 0 237 -164q0 -80 -38 -111t-133 -31z"/>
<glyph glyph-name="Racute" horiz-adv-x="643" unicode="Ŕ" d="M220 387h110q60 0 82 20.5t22 77.5t-21.5 77t-82.5 20l-110 -1v-194zM614 0h-161l-52 211q-10 33 -26.5 45.5t-47.5 12.5l-107 1v-270h-150v690q93 9 263 9q139 0 197 -44t58 -160q0 -76 -30.5 -119t-101.5 -52v-5q79 -18 98 -104zM277 723l-44 63l202 149l67 -103z"/>
<glyph glyph-name="racute" horiz-adv-x="425" unicode="ŕ" d="M176 493l13 -72q101 86 200 86h26l-15 -137h-40q-49 0 -151 -34v-336h-148v493h115zM197 540l-43 64l201 148l67 -102z"/>
<glyph glyph-name="Rcommaaccent" horiz-adv-x="643" unicode="Ŗ" d="M320 -52h32q26 0 36 -9.5t10 -32.5v-52q0 -81 -46 -146l-56 14q13 45 13 104q-38 0 -38 37l1 43q2 23 12.5 32.5t35.5 9.5zM220 387h110q60 0 82 20.5t22 77.5t-21.5 77t-82.5 20l-110 -1v-194zM614 0h-161l-52 211q-10 33 -26.5 45.5t-47.5 12.5l-107 1v-270h-150v690 q93 9 263 9q139 0 197 -44t58 -160q0 -76 -30.5 -119t-101.5 -52v-5q79 -18 98 -104z"/>
<glyph glyph-name="rcommaaccent" horiz-adv-x="425" unicode="ŗ" d="M109 -48h32q26 0 36 -9.5t10 -32.5v-52q0 -81 -46 -146l-56 14q13 45 13 104q-38 0 -38 36l1 44q2 23 12.5 32.5t35.5 9.5zM415 507l-15 -137h-40q-49 0 -151 -34v-336h-148v493h115l13 -72q101 86 200 86h26z"/>
<glyph glyph-name="Rcaron" horiz-adv-x="643" unicode="Ř" d="M220 387h110q60 0 82 20.5t22 77.5t-21.5 77t-82.5 20l-110 -1v-194zM614 0h-161l-52 211q-10 33 -26.5 45.5t-47.5 12.5l-107 1v-270h-150v690q93 9 263 9q139 0 197 -44t58 -160q0 -76 -30.5 -119t-101.5 -52v-5q79 -18 98 -104zM287 739l-152 131l40 58l139 -79h8 l138 79l41 -58l-153 -131h-61z"/>
<glyph glyph-name="rcaron" horiz-adv-x="425" unicode="ř" d="M176 493l13 -72q101 86 200 86h26l-15 -137h-40q-49 0 -151 -34v-336h-148v493h115zM207 557l-152 131l41 58l138 -80h8l138 80l41 -58l-152 -131h-62z"/>
<glyph glyph-name="Sacute" horiz-adv-x="582" unicode="Ś" d="M325 261l-139 49q-77 28 -110 76t-33 126q0 114 55.5 152.5t195.5 38.5q132 0 227 -27l-10 -104q-87 3 -216 3q-60 0 -80 -10.5t-20 -52.5q0 -34 15 -49t57 -29l131 -45q80 -28 113 -76.5t33 -126.5q0 -116 -56 -157.5t-200 -41.5q-117 0 -237 26l9 110q213 -5 228 -5 q61 0 81.5 13t20.5 54q0 35 -14 49.5t-51 26.5zM477 832l-225 -109l-44 63l202 149z"/>
<glyph glyph-name="sacute" horiz-adv-x="527" unicode="ś" d="M280 183l-123 33q-68 20 -94 54.5t-26 95.5q0 77 47.5 109t162.5 32q133 -2 228 -19l-10 -95q-126 2 -190 2q-35 0 -48.5 -0.5t-27 -3.5t-16.5 -9.5t-3 -19.5q0 -5 0.5 -9t2.5 -7.5t3.5 -5.5t5.5 -4.5t6.5 -3.5t9 -3.5t10 -3.5t13 -3.5t14.5 -3.5l126 -34 q66 -19 94 -50.5t28 -93.5q0 -88 -51 -119.5t-175 -31.5q-120 0 -221 17l9 96q36 -2 171 -2q77 0 100.5 6.5t23.5 30.5q0 5 -0.5 9t-2.5 7.5t-4 5.5t-6.5 4.5t-7 4t-9.5 4t-11 3.5l-14 3.5t-15 4.5zM453 650l-225 -110l-44 64l202 148z"/>
<glyph glyph-name="Scedilla" horiz-adv-x="582" unicode="Ş" d="M222 -117l14 59q48 4 63 4q43 0 62.5 -14.5t19.5 -50.5q0 -67 -45.5 -104.5t-116.5 -37.5q-19 0 -38 3l19 64q37 0 61.5 15t24.5 45q0 11 -11.5 14t-52.5 3zM325 261l-139 49q-77 28 -110 76t-33 126q0 114 55.5 152.5t195.5 38.5q132 0 227 -27l-10 -104q-87 3 -216 3 q-60 0 -80 -10.5t-20 -52.5q0 -34 15 -49t57 -29l131 -45q80 -28 113 -76.5t33 -126.5q0 -116 -56 -157.5t-200 -41.5q-117 0 -237 26l9 110q213 -5 228 -5q61 0 81.5 13t20.5 54q0 35 -14 49.5t-51 26.5z"/>
<glyph glyph-name="scedilla" horiz-adv-x="527" unicode="ş" d="M185 -109l14 58q33 4 65 4q41 0 60 -14t19 -49v-6q-3 -65 -48 -101t-116 -36q-24 0 -36 2l19 65h4q35 0 58.5 15t23.5 45q0 11 -11.5 14t-51.5 3zM280 183l-123 33q-68 20 -94 54.5t-26 95.5q0 77 47.5 109t162.5 32q133 -2 228 -19l-10 -95q-126 2 -190 2 q-35 0 -48.5 -0.5t-27 -3.5t-16.5 -9.5t-3 -19.5q0 -5 0.5 -9t2.5 -7.5t3.5 -5.5t5.5 -4.5t6.5 -3.5t9 -3.5t10 -3.5t13 -3.5t14.5 -3.5l126 -34q66 -19 94 -50.5t28 -93.5q0 -88 -51 -119.5t-175 -31.5q-120 0 -221 17l9 96q36 -2 171 -2q77 0 100.5 6.5t23.5 30.5 q0 5 -0.5 9t-2.5 7.5t-4 5.5t-6.5 4.5t-7 4t-9.5 4t-11 3.5l-14 3.5t-15 4.5z"/>
<glyph glyph-name="Scaron" horiz-adv-x="582" unicode="Š" d="M325 261l-139 49q-77 28 -110 76t-33 126q0 114 55.5 152.5t195.5 38.5q132 0 227 -27l-10 -104q-87 3 -216 3q-60 0 -80 -10.5t-20 -52.5q0 -34 15 -49t57 -29l131 -45q80 -28 113 -76.5t33 -126.5q0 -116 -56 -157.5t-200 -41.5q-117 0 -237 26l9 110q213 -5 228 -5 q61 0 81.5 13t20.5 54q0 35 -14 49.5t-51 26.5zM476 870l-153 -131h-61l-152 131l40 58l139 -79h8l138 79z"/>
<glyph glyph-name="scaron" horiz-adv-x="527" unicode="š" d="M280 183l-123 33q-68 20 -94 54.5t-26 95.5q0 77 47.5 109t162.5 32q133 -2 228 -19l-10 -95q-126 2 -190 2q-35 0 -48.5 -0.5t-27 -3.5t-16.5 -9.5t-3 -19.5q0 -5 0.5 -9t2.5 -7.5t3.5 -5.5t5.5 -4.5t6.5 -3.5t9 -3.5t10 -3.5t13 -3.5t14.5 -3.5l126 -34 q66 -19 94 -50.5t28 -93.5q0 -88 -51 -119.5t-175 -31.5q-120 0 -221 17l9 96q36 -2 171 -2q77 0 100.5 6.5t23.5 30.5q0 5 -0.5 9t-2.5 7.5t-4 5.5t-6.5 4.5t-7 4t-9.5 4t-11 3.5l-14 3.5t-15 4.5zM452 688l-153 -131h-61l-152 131l41 58l138 -80h8l138 80z"/>
<glyph glyph-name="Tcedilla" horiz-adv-x="601" unicode="Ţ" d="M225 -104l14 58q33 4 65 4q41 0 60 -14t19 -49v-6q-3 -65 -47.5 -101t-114.5 -36q-19 0 -38 3l19 64h4q35 0 58.5 15t23.5 45q0 11 -11.5 14t-51.5 3zM583 690v-124h-206v-566h-153v566h-206v124h565z"/>
<glyph glyph-name="tcedilla" horiz-adv-x="411" unicode="ţ" d="M158 -110l14 59q33 4 64 4q42 0 61 -14t19 -49v-6q-2 -65 -47 -101.5t-115 -36.5q-18 0 -38 3l19 64q38 0 62 15t24 46q0 10 -12 13t-51 3zM253 394v-233q0 -28 12 -39t42 -11h63l16 -103q-57 -20 -139 -20q-67 0 -104 37.5t-37 104.5v264h-87v94l87 5v138h147v-138h137 v-99h-137z"/>
<glyph glyph-name="Tcaron" horiz-adv-x="601" unicode="Ť" d="M583 566h-206v-566h-153v566h-206v124h565v-124zM270 739l-152 131l40 58l139 -79h8l138 79l41 -58l-153 -131h-61z"/>
<glyph glyph-name="tcaron" horiz-adv-x="411" unicode="ť" d="M253 493h137v-99h-137v-233q0 -28 12 -39t42 -11h63l16 -103q-57 -20 -139 -20q-67 0 -104 37.5t-37 104.5v264h-87v94l87 5v138h147v-138zM365 553l-56 14q13 51 13 104q-38 0 -38 37l1 43q1 23 11.5 32.5t36.5 9.5h32q25 0 35.5 -9.5t10.5 -32.5v-52q0 -79 -46 -146z "/>
<glyph glyph-name="Tbar" horiz-adv-x="603" unicode="Ŧ" d="M378 566v-154h127v-73h-127v-339h-153v339h-129v73h129v154h-206v124h565v-124h-206z"/>
<glyph glyph-name="tbar" horiz-adv-x="411" unicode="ŧ" d="M253 394v-73h106v-72h-106v-88q0 -28 12 -39t42 -11h63l16 -103q-57 -20 -139 -20q-67 0 -104 37.5t-37 104.5v119h-60v72h60v73h-87v94l87 5v138h147v-138h137v-99h-137z"/>
<glyph glyph-name="Umacron" horiz-adv-x="681" unicode="Ū" d="M617 690v-415q0 -158 -60.5 -223t-208.5 -65q-156 0 -219.5 65t-63.5 223v415h152v-415q0 -95 26.5 -130t97.5 -35q70 0 96.5 35t26.5 130v415h153zM491 776h-299v96h299v-96z"/>
<glyph glyph-name="umacron" d="M529 493v-493h-117l-11 68q-102 -81 -204 -81q-139 0 -139 137v369h148v-324q-1 -32 11 -45t42 -13q43 0 123 41v341h147zM447 601h-299v96h299v-96z" unicode="ū"/>
<glyph glyph-name="Uring" horiz-adv-x="681" unicode="Ů" d="M617 690v-415q0 -158 -60.5 -223t-208.5 -65q-156 0 -219.5 65t-63.5 223v415h152v-415q0 -95 26.5 -130t97.5 -35q70 0 96.5 35t26.5 130v415h153zM342 879q-22 0 -36.5 -14.5t-14.5 -36.5q0 -23 14.5 -37t36.5 -14q21 0 35.5 14t14.5 37q0 22 -14.5 36.5t-35.5 14.5z M342 943q48 0 83 -33.5t35 -81.5t-35 -81.5t-83 -33.5q-50 0 -84 33t-34 82q0 48 34.5 81.5t83.5 33.5z"/>
<glyph glyph-name="uring" d="M529 493v-493h-117l-11 68q-102 -81 -204 -81q-139 0 -139 137v369h148v-324q-1 -32 11 -45t42 -13q43 0 123 41v341h147zM298 704q-22 0 -36.5 -14.5t-14.5 -37.5t14.5 -37t36.5 -14q21 0 35.5 14t14.5 37t-14.5 37.5t-35.5 14.5zM298 538q-50 0 -84 32.5t-34 81.5 t34.5 82.5t83.5 33.5q48 0 83 -34t35 -82t-34.5 -81t-83.5 -33z" unicode="ů"/>
<glyph glyph-name="Uhungarumlaut" horiz-adv-x="681" unicode="Ű" d="M617 690v-415q0 -158 -60.5 -223t-208.5 -65q-156 0 -219.5 65t-63.5 223v415h152v-415q0 -95 26.5 -130t97.5 -35q70 0 96.5 35t26.5 130v415h153zM386 881l-152 -167l-60 48l115 185zM576 881l-153 -167l-59 47l114 186z"/>
<glyph glyph-name="uhungarumlaut" d="M382 493h147v-493h-117l-11 68q-102 -81 -204 -81q-139 0 -139 137v369h148v-324q-1 -32 11 -45t42 -13q43 0 123 41v341zM190 539l-60 47l115 185l97 -65zM320 586l114 185l98 -65l-153 -167z" unicode="ű"/>
<glyph glyph-name="Uogonek" horiz-adv-x="681" unicode="Ų" d="M617 690v-415q0 -149 -53.5 -215t-181.5 -73q-40 -55 -58 -96q-6 -12 -6 -21q0 -23 32 -23q16 0 37 6l12 -55q-53 -21 -95 -21q-41 0 -63 19.5t-22 50.5q0 17 6 33q18 55 92 107q-138 6 -195 71.5t-57 216.5v415h152v-415q0 -95 26.5 -130t97.5 -35q70 0 96.5 35 t26.5 130v415h153z"/>
<glyph glyph-name="uogonek" d="M534 -138l12 -55q-53 -21 -95 -21q-41 0 -63 19.5t-22 50.5q0 17 6 33q17 55 97 111h-57l-11 68q-102 -81 -204 -81q-139 0 -139 137v369h148v-324q-1 -32 11 -45t42 -13q43 0 123 41v341h147v-493h2q-42 -57 -60 -100q-6 -12 -6 -21q0 -23 32 -23q16 0 37 6z" unicode="ų"/>
<glyph glyph-name="Wcircumflex" horiz-adv-x="973" unicode="Ŵ" d="M947 690l-109 -648q-4 -19 -19 -30.5t-36 -11.5h-146q-21 0 -36 12t-18 31l-75 451q-8 44 -12 87h-19q0 -3 -4.5 -37t-7.5 -51l-74 -450q-3 -19 -18.5 -31t-36.5 -12h-146q-20 0 -35.5 11.5t-19.5 30.5l-109 648h156l67 -479q6 -45 9 -100h20q3 28 15 100l74 432 q3 21 17.5 34t36.5 13h132q21 0 35.5 -13t17.5 -34l74 -433q12 -74 14 -99h21q4 57 9 98l68 481h155zM674 774l-42 -55l-140 95h-8l-143 -95l-41 58l134 132h107z"/>
<glyph glyph-name="wcircumflex" horiz-adv-x="847" unicode="ŵ" d="M831 493l-121 -454q-10 -39 -51 -39h-116q-20 0 -35 12.5t-18 32.5l-50 279q-1 9 -4.5 38t-6.5 45h-12l-12 -83l-49 -279q-3 -20 -18 -32.5t-36 -12.5h-114q-41 0 -51 39l-121 454h149l67 -320q10 -54 12 -81h13q2 14 6.5 41t6.5 40l50 276q7 44 51 44h104q20 0 34.5 -12 t17.5 -33l49 -275q2 -14 7 -41t7 -40h12l12 81l68 320h149zM611 592l-41 -55l-141 95h-8l-142 -95l-41 58l134 132h106z"/>
<glyph glyph-name="Ycircumflex" horiz-adv-x="608" unicode="Ŷ" d="M381 228v-228h-153v228l-228 462h159l115 -253q10 -22 26 -87h10q12 54 25 87l115 253h157zM158 719l-41 58l134 132h107l132 -135l-41 -55l-141 95h-8z"/>
<glyph glyph-name="ycircumflex" horiz-adv-x="562" unicode="ŷ" d="M554 493l-175 -500q-29 -82 -86.5 -139t-151.5 -57q-10 0 -34 2l-12 87q60 16 94 41.5t53 68.5l2 4h-28q-37 0 -48 36l-161 457h158l92 -319q9 -35 15 -74h13q3 12 10 37.5t10 36.5l91 319h158zM138 537l-41 58l134 132h107l133 -135l-42 -55l-140 95h-8z"/>
<glyph glyph-name="Ydieresis" horiz-adv-x="608" unicode="Ÿ" d="M381 228v-228h-153v228l-228 462h159l115 -253q10 -22 26 -87h10q12 54 25 87l115 253h157zM418 763h-48q-33 0 -33 33v57q0 33 33 33h48q33 0 33 -33v-57q0 -33 -33 -33zM236 763h-49q-32 0 -32 33v57q0 33 32 33h49q33 0 33 -33v-57q0 -33 -33 -33z"/>
<glyph glyph-name="Zacute" horiz-adv-x="583" unicode="Ź" d="M544 117v-117h-504v117l328 456h-320v117h488v-117l-328 -456h336zM256 723l-44 63l202 149l67 -103z"/>
<glyph glyph-name="zacute" horiz-adv-x="525" unicode="ź" d="M485 106v-106h-445v106l272 282h-267v105h435v-105l-271 -282h276zM225 540l-44 64l202 148l67 -102z"/>
<glyph glyph-name="Zdotaccent" horiz-adv-x="583" unicode="Ż" d="M544 117v-117h-504v117l328 456h-320v117h488v-117l-328 -456h336zM319 753h-45q-42 0 -42 41v52q0 41 42 41h45q42 0 42 -41v-52q0 -41 -42 -41z"/>
<glyph glyph-name="zdotaccent" horiz-adv-x="525" unicode="ż" d="M485 106v-106h-445v106l272 282h-267v105h435v-105l-271 -282h276zM288 570h-45q-42 0 -42 41v52q0 41 42 41h45q42 0 42 -41v-52q0 -41 -42 -41z"/>
<glyph glyph-name="Zcaron" horiz-adv-x="583" unicode="Ž" d="M544 117v-117h-504v117l328 456h-320v117h488v-117l-328 -456h336zM266 739l-152 131l41 58l138 -79h8l138 79l41 -58l-153 -131h-61z"/>
<glyph glyph-name="zcaron" horiz-adv-x="525" unicode="ž" d="M485 106v-106h-445v106l272 282h-267v105h435v-105l-271 -282h276zM235 557l-152 131l40 58l139 -80h8l138 80l41 -58l-153 -131h-61z"/>
<glyph glyph-name="florin" horiz-adv-x="478" unicode="ƒ" d="M445 593h-67q-34 0 -48.5 -13t-17.5 -50l-11 -124h118l-9 -100h-118l-29 -316q-13 -153 -170 -153q-79 0 -128 10l21 99h64q34 0 48.5 14t17.5 49l27 297h-96l7 95l98 4l13 145q15 152 173 152q79 0 129 -10z"/>
<glyph glyph-name="Scommaaccent" horiz-adv-x="582" unicode="Ș" d="M264 -52h32q26 0 36 -9.5t10 -32.5v-52q0 -81 -46 -146l-56 14q13 45 13 104q-38 0 -38 37l1 43q2 23 12.5 32.5t35.5 9.5zM325 261l-139 49q-77 28 -110 76t-33 126q0 114 55.5 152.5t195.5 38.5q132 0 227 -27l-10 -104q-87 3 -216 3q-60 0 -80 -10.5t-20 -52.5 q0 -34 15 -49t57 -29l131 -45q80 -28 113 -76.5t33 -126.5q0 -116 -56 -157.5t-200 -41.5q-117 0 -237 26l9 110q213 -5 228 -5q61 0 81.5 13t20.5 54q0 35 -14 49.5t-51 26.5z"/>
<glyph glyph-name="scommaaccent" horiz-adv-x="527" unicode="ș" d="M247 -48h31q26 0 36.5 -9.5t10.5 -32.5v-52q-1 -81 -47 -146l-56 14q12 43 14 104q-38 0 -38 36l1 44q1 23 11.5 32.5t36.5 9.5zM280 183l-123 33q-68 20 -94 54.5t-26 95.5q0 77 47.5 109t162.5 32q133 -2 228 -19l-10 -95q-126 2 -190 2q-35 0 -48.5 -0.5t-27 -3.5 t-16.5 -9.5t-3 -19.5q0 -5 0.5 -9t2.5 -7.5t3.5 -5.5t5.5 -4.5t6.5 -3.5t9 -3.5t10 -3.5t13 -3.5t14.5 -3.5l126 -34q66 -19 94 -50.5t28 -93.5q0 -88 -51 -119.5t-175 -31.5q-120 0 -221 17l9 96q36 -2 171 -2q77 0 100.5 6.5t23.5 30.5q0 5 -0.5 9t-2.5 7.5t-4 5.5 t-6.5 4.5t-7 4t-9.5 4t-11 3.5l-14 3.5t-15 4.5z"/>
<glyph glyph-name="uni021A" horiz-adv-x="601" unicode="Ț" d="M275 -52h32q26 0 36 -9.5t10 -32.5v-52q0 -81 -46 -146l-56 14q13 45 13 104q-38 0 -38 37l1 43q1 23 11.5 32.5t36.5 9.5zM583 566h-206v-566h-153v566h-206v124h565v-124z"/>
<glyph glyph-name="uni021B" horiz-adv-x="411" unicode="ț" d="M218 -52h32q25 0 35.5 -9.5t10.5 -32.5v-52q0 -79 -46 -146l-56 14q13 45 13 104q-38 0 -38 37l1 43q1 23 11.5 32.5t36.5 9.5zM253 394v-233q0 -28 12 -39t42 -11h63l16 -103q-57 -20 -139 -20q-67 0 -104 37.5t-37 104.5v264h-87v94l87 5v138h147v-138h137v-99h-137z "/>
<glyph glyph-name="circumflex" horiz-adv-x="448" unicode="ˆ" d="M411 589l-41 -55l-141 94h-8l-142 -94l-41 58l134 131h107z"/>
<glyph glyph-name="caron" horiz-adv-x="448" unicode="ˇ" d="M409 682l-153 -131h-61l-153 131l41 59l138 -80h8l138 80z"/>
<glyph glyph-name="breve" horiz-adv-x="393" unicode="˘" d="M290 707l71 -10q1 -6 1 -17q0 -58 -45 -96t-120 -38t-120.5 38t-45.5 96q0 11 1 17l71 10q0 -64 94 -64q47 0 70.5 16t22.5 48z"/>
<glyph glyph-name="dotaccent" horiz-adv-x="236" unicode="˙" d="M95 703h46q41 0 41 -41v-52q0 -42 -41 -42h-46q-42 0 -42 42v52q0 41 42 41z"/>
<glyph glyph-name="ring" horiz-adv-x="309" unicode="˚" d="M155 695q-22 0 -36 -14.5t-14 -37.5t14.5 -37t35.5 -14t35.5 14t14.5 37t-14.5 37.5t-35.5 14.5zM155 759q48 0 83 -34t35 -82t-34.5 -81t-83.5 -33t-83.5 33t-34.5 81q0 49 34.5 82.5t83.5 33.5z"/>
<glyph glyph-name="ogonek" horiz-adv-x="251" unicode="˛" d="M141 2l59 -2q-43 -60 -60 -100q-6 -12 -6 -21q0 -23 32 -23q16 0 37 6l13 -55q-53 -21 -95 -21t-64 20t-22 51q0 16 6 32q19 58 100 113z"/>
<glyph glyph-name="tilde" horiz-adv-x="440" unicode="˜" d="M112 570h-63q-3 21 -3 38q0 50 22.5 77t55.5 27h6q35 -3 85.5 -24t73.5 -24q4 -1 12 -1q16 0 21.5 10t5.5 34h63q3 -21 3 -38q0 -48 -21.5 -75.5t-56.5 -27.5h-6q-38 3 -90.5 25t-69.5 25q-2 0 -5.5 0.5t-4.5 0.5q-18 0 -23 -10.5t-5 -36.5z"/>
<glyph glyph-name="hungarumlaut" horiz-adv-x="501" unicode="˝" d="M260 682l-152 -168l-60 48l115 185zM450 682l-153 -168l-59 47l114 186z"/>
<glyph glyph-name="Delta" horiz-adv-x="660" unicode="Δ" d="M466 114l-115 341q-5 17 -12.5 51t-8.5 38q-3 -12 -10 -42.5t-12 -47.5l-116 -340h274zM640 53v-53h-621v53l235 637h151z"/>
<glyph glyph-name="Omega" horiz-adv-x="719" unicode="Ω" d="M45 123h83q37 0 71 -13q-76 59 -107.5 120.5t-30.5 158.5q0 161 69.5 237.5t229.5 76.5q159 0 228.5 -77t69.5 -240q0 -99 -31 -159.5t-107 -116.5q39 13 70 13h84v-123h-277v116q58 47 80.5 102t22.5 149q0 120 -31 167t-110 47t-109.5 -47t-30.5 -169 q0 -97 22.5 -147.5t80.5 -101.5v-116h-277v123z"/>
<glyph glyph-name="mu" horiz-adv-x="621" unicode="μ" d="M546 493v-493h-115l-14 72q-93 -85 -190 -85q-22 0 -33 2q6 -27 6 -55v-124h-128v683h148v-324q0 -51 61 -51q48 0 117 33v342h148z"/>
<glyph glyph-name="pi" horiz-adv-x="648" unicode="π" d="M627 388h-78v-388h-148v388h-154v-388h-147v388h-79v106h606v-106z"/>
<glyph glyph-name="uni0401" horiz-adv-x="577" unicode="Ё" d="M530 119l6 -112q-93 -10 -320 -10q-69 0 -110 37.5t-41 101.5v418q0 64 41.5 101.5t109.5 37.5q227 0 320 -10l-6 -113h-266q-25 0 -36 -12t-11 -39v-105h275v-110h-275v-133q0 -28 11 -40t36 -12h266zM429 775h-48q-33 0 -33 32v58q0 33 33 33h48q33 0 33 -33v-58 q0 -32 -33 -32zM248 775h-49q-32 0 -32 32v58q0 33 32 33h49q32 0 32 -33v-58q0 -32 -32 -32z"/>
<glyph glyph-name="uni0402" horiz-adv-x="763" unicode="Ђ" d="M376 566v-162q87 45 182 45q87 0 131 -45t44 -167q0 -133 -65 -190t-185 -57h-15l-14 108q71 9 99 36t28 93q0 63 -16.5 80.5t-63.5 17.5q-63 0 -125 -28v-297h-153v566h-205v124h563v-124h-205z"/>
<glyph glyph-name="uni0403" horiz-adv-x="533" unicode="Ѓ" d="M69 0v546q0 65 41 106t104 41q216 0 306 -11l-7 -112h-237q-29 0 -41.5 -12.5t-12.5 -42.5v-515h-153zM483 832l-225 -109l-44 63l201 149z"/>
<glyph glyph-name="uni0404" d="M544 130l13 -114q-87 -28 -215 -28q-163 0 -229 80t-66 277t66 277t229 80q119 0 210 -23l-13 -114q-108 5 -197 5q-69 0 -99.5 -34.5t-36.5 -122.5h280v-106h-282q4 -107 33.5 -147t104.5 -40q128 0 202 10z" unicode="Є"/>
<glyph glyph-name="uni0405" horiz-adv-x="582" unicode="Ѕ" d="M325 261l-139 49q-77 28 -110 76t-33 126q0 114 55.5 152.5t195.5 38.5q132 0 227 -27l-10 -104q-87 3 -216 3q-60 0 -80 -10.5t-20 -52.5q0 -34 15 -49t57 -29l131 -45q80 -28 113 -76.5t33 -126.5q0 -116 -56 -157.5t-200 -41.5q-117 0 -237 26l9 110q213 -5 228 -5 q61 0 81.5 13t20.5 54q0 35 -14 49.5t-51 26.5z"/>
<glyph glyph-name="uni0406" horiz-adv-x="295" unicode="І" d="M223 0h-151v690h151v-690z"/>
<glyph glyph-name="uni0407" horiz-adv-x="295" unicode="Ї" d="M223 0h-151v690h151v-690zM214 886h48q33 0 33 -33v-58q0 -33 -33 -33h-48q-33 0 -33 33v58q0 33 33 33zM32 886h48q33 0 33 -33v-58q0 -33 -33 -33h-48q-33 0 -33 33v58q0 33 33 33z"/>
<glyph glyph-name="uni0408" horiz-adv-x="370" unicode="Ј" d="M302 690v-545q0 -75 -41 -116t-115 -41q-83 0 -126 20l17 102h47q66 0 66 53v527h152z"/>
<glyph glyph-name="uni0409" horiz-adv-x="976" unicode="Љ" d="M599 110h94q60 0 78 20.5t18 86.5q0 65 -18 87.5t-78 22.5h-94v-217zM599 434h94q141 0 195.5 -47.5t54.5 -173.5t-51 -173.5t-173 -47.5q-173 0 -269 8h-1v580h-85q-48 0 -54 -58q-14 -159 -25 -235.5t-33 -139.5q-29 -82 -76 -116.5t-123 -34.5q-17 0 -26 1l-11 104 q33 9 55.5 27t40.5 60q22 50 32 121.5t19 199.5q1 22 2 33q9 148 162 148h272v-256z"/>
<glyph glyph-name="uni040A" horiz-adv-x="976" unicode="Њ" d="M599 110h98q57 0 74.5 20t17.5 83t-17.5 85t-74.5 22h-98v-210zM599 427h98q139 0 192.5 -46.5t53.5 -169.5q0 -125 -50 -172t-169 -47q-178 0 -273 8h-3v316h-224v-316h-152v690h152v-263h224v263h151v-263z"/>
<glyph glyph-name="uni040B" horiz-adv-x="786" unicode="Ћ" d="M376 566v-156q101 43 193 43q90 0 132.5 -41t42.5 -127v-285h-153v253q0 41 -16 56t-61 15q-66 0 -138 -25v-299h-153v566h-205v124h563v-124h-205z"/>
<glyph glyph-name="uni040C" horiz-adv-x="638" unicode="Ќ" d="M382 362v-4q19 -3 35 -6.5t30.5 -11.5t25.5 -14t22.5 -21.5t19 -24.5t18 -33t16.5 -37.5t17.5 -47.5t17.5 -52.5t20 -62.5q10 -31 15 -47h-159q-56 183 -76 224q-31 63 -78 75q-18 5 -41 5h-49q8 -37 8 -66v-238h-152v690h152v-195q0 -39 -8 -82h47q71 0 102.5 54 t77.5 213q2 7 3 10h155q-56 -176 -71 -209q-35 -78 -88 -103q-25 -11 -60 -16zM287 723l-44 63l202 149l67 -103z"/>
<glyph glyph-name="uni040D" horiz-adv-x="711" unicode="Ѝ" d="M639 0h-146v412q0 46 9 93h-7q-15 -46 -39 -91l-233 -414h-151v690h145v-405q0 -43 -8 -96h6q13 38 40 90l233 411h151v-690zM432 786l-43 -63l-225 109l67 103z"/>
<glyph glyph-name="uni040E" horiz-adv-x="592" unicode="Ў" d="M590 690l-169 -512q-30 -91 -68 -136.5t-106 -51.5q-7 -1 -24 -1q-72 0 -142 16l17 108q11 0 36 -1.5t36 -1.5q45 0 63.5 12.5t33.5 51.5l8 22h-37q-67 0 -89 69l-142 425h156l109 -365q3 -12 18 -12h25l119 377h156zM391 901l70 -10q1 -6 1 -18q0 -57 -45 -95t-119 -38 q-75 0 -120.5 38t-45.5 95q0 12 1 18l70 10q0 -64 95 -64q93 0 93 64z"/>
<glyph glyph-name="uni040F" horiz-adv-x="694" unicode="Џ" d="M623 690v-690h-214l-6 -151h-104l-7 151h-220v690h152v-580h246v580h153z"/>
<glyph glyph-name="uni0410" horiz-adv-x="650" unicode="А" d="M411 299l-58 211q-12 50 -14 65h-27q-2 -10 -7 -32t-8 -33l-58 -211h172zM444 181h-237l-50 -181h-156l199 650q4 18 19 29t34 11h144q43 0 53 -40l199 -650h-155z"/>
<glyph glyph-name="uni0411" horiz-adv-x="619" unicode="Б" d="M224 108h105q63 0 82.5 19t19.5 79q0 59 -19.5 79.5t-82.5 20.5h-105v-198zM224 410h105q143 0 199 -45.5t56 -164.5q0 -67 -15 -109t-50 -63.5t-78 -29t-113 -7.5q-144 0 -253 9h-4v690q112 7 235 7q100 0 235 -7l-12 -117h-305v-163z"/>
<glyph glyph-name="uni0412" horiz-adv-x="639" unicode="В" d="M220 107h116q64 0 86 18.5t22 75.5q0 62 -23 83.5t-88 22.5h-113v-200zM220 408h112q55 0 75.5 18t20.5 71q0 52 -21.5 69t-83.5 17l-103 1v-176zM454 360v-4q77 -7 109.5 -52.5t32.5 -131.5q0 -104 -53 -142t-180 -38q-191 0 -292 8v690q90 8 260 8q137 0 190 -37.5 t53 -142.5q0 -75 -28 -113.5t-92 -44.5z"/>
<glyph glyph-name="uni0413" horiz-adv-x="533" unicode="Г" d="M69 0v546q0 65 41 106t104 41q216 0 306 -11l-7 -112h-237q-29 0 -41.5 -12.5t-12.5 -42.5v-515h-153z"/>
<glyph glyph-name="uni0414" horiz-adv-x="737" unicode="Д" d="M472 110v470h-89q-30 0 -43.5 -13.5t-15.5 -45.5q-12 -145 -32 -238t-59 -173h239zM606 -151l-12 151h-457l-12 -151h-108v261h73q71 177 90 436q5 65 48 104.5t113 39.5h283v-580h90v-261h-108z"/>
<glyph glyph-name="uni0415" horiz-adv-x="577" unicode="Е" d="M530 119l6 -112q-93 -10 -320 -10q-69 0 -110 37.5t-41 101.5v418q0 64 41.5 101.5t109.5 37.5q227 0 320 -10l-6 -113h-266q-25 0 -36 -12t-11 -39v-105h275v-110h-275v-133q0 -28 11 -40t36 -12h266z"/>
<glyph glyph-name="uni0416" horiz-adv-x="938" unicode="Ж" d="M685 362v-4q91 -12 127.5 -71t96.5 -256q7 -20 10 -31h-160q-63 192 -80 230q-29 60 -69 70q-13 4 -29 4h-46q8 -37 8 -66v-238h-146v238q0 29 8 66h-49q-55 0 -82 -47.5t-79 -206.5q-10 -32 -16 -50h-160q60 195 82 241q35 77 91 101q25 11 61 16v4q-25 3 -45.5 11 t-35.5 17t-29 29t-23.5 35.5t-22 50t-20 58t-22.5 72.5q-11 36 -17 55h155q54 -170 74 -209q41 -64 89 -68h49q-8 43 -8 82v195h146v-195q0 -39 -8 -82h45q53 0 80 49t74 194q7 22 11 34h155q-55 -176 -71 -212q-34 -77 -88 -101q-24 -11 -56 -15z"/>
<glyph glyph-name="uni0417" horiz-adv-x="565" unicode="З" d="M55 569l-12 110q90 19 219 19q134 0 186 -37.5t52 -142.5q0 -75 -28 -113.5t-90 -44.5v-4q75 -7 107 -52.5t32 -131.5q0 -103 -52 -141.5t-176 -38.5q-160 0 -264 30l11 105q120 -19 224 -19q59 0 79.5 18.5t20.5 74.5q0 60 -21.5 81t-82.5 23h-133v107h132q52 0 71 17.5 t19 67.5q0 51 -20.5 68t-76.5 17q-78 0 -197 -13z"/>
<glyph glyph-name="uni0418" horiz-adv-x="711" unicode="И" d="M639 0h-146v412q0 46 9 93h-7q-15 -46 -39 -91l-233 -414h-151v690h145v-405q0 -43 -8 -96h6q13 38 40 90l233 411h151v-690z"/>
<glyph glyph-name="uni0419" horiz-adv-x="711" unicode="Й" d="M639 0h-146v412q0 46 9 93h-7q-15 -46 -39 -91l-233 -414h-151v690h145v-405q0 -43 -8 -96h6q13 38 40 90l233 411h151v-690zM426 895h98q1 -6 1 -18q0 -58 -45 -97.5t-119 -39.5q-75 0 -120.5 39.5t-45.5 97.5q0 12 1 18h98v-9q0 -73 67 -73q65 0 65 72v10z"/>
<glyph glyph-name="uni041A" horiz-adv-x="638" unicode="К" d="M382 362v-4q19 -3 35 -6.5t30.5 -11.5t25.5 -14t22.5 -21.5t19 -24.5t18 -33t16.5 -37.5t17.5 -47.5t17.5 -52.5t20 -62.5q10 -31 15 -47h-159q-56 183 -76 224q-31 63 -78 75q-18 5 -41 5h-49q8 -37 8 -66v-238h-152v690h152v-195q0 -39 -8 -82h47q71 0 102.5 54 t77.5 213q2 7 3 10h155q-56 -176 -71 -209q-35 -78 -88 -103q-25 -11 -60 -16z"/>
<glyph glyph-name="uni041B" horiz-adv-x="678" unicode="Л" d="M607 690v-690h-153v580h-88q-59 0 -63 -58q-13 -155 -24.5 -236t-34.5 -139q-54 -152 -193 -152q-12 0 -36 2l-11 118q39 7 62.5 23t36.5 50q20 53 31 128.5t23 223.5q11 150 162 150h288z"/>
<glyph glyph-name="uni041C" horiz-adv-x="914" unicode="М" d="M626 690h147q54 0 57 -57l26 -633h-144l-22 571h-18l-104 -427q-10 -49 -61 -49h-100q-51 0 -63 49l-105 427h-17l-20 -571h-143l25 633q2 57 57 57h147q48 0 60 -49l84 -344q4 -20 10.5 -56t7.5 -41h13q1 5 7.5 41t10.5 56l83 344q11 49 62 49z"/>
<glyph glyph-name="uni041D" horiz-adv-x="692" unicode="Н" d="M620 690v-690h-153v308h-243v-308h-152v690h152v-264h243v264h153z"/>
<glyph glyph-name="uni041E" horiz-adv-x="684" unicode="О" d="M342 580q-78 0 -106.5 -49t-28.5 -186t28.5 -186t106.5 -49t106.5 49t28.5 186t-28.5 186t-106.5 49zM342 703q166 0 231 -76.5t65 -281.5t-65 -281.5t-231 -76.5t-230.5 76.5t-64.5 281.5t64.5 281.5t230.5 76.5z"/>
<glyph glyph-name="uni041F" horiz-adv-x="690" unicode="П" d="M618 690v-690h-152v580h-242v-580h-152v690h546z"/>
<glyph glyph-name="uni0420" horiz-adv-x="616" unicode="Р" d="M224 365h106q60 1 81 23t21 86t-21 86t-81 22l-106 -1v-216zM71 0v690q93 9 263 9q144 0 197.5 -47t53.5 -178t-50.5 -178.5t-180.5 -47.5q-66 0 -130 8v-256h-153z"/>
<glyph glyph-name="uni0421" horiz-adv-x="586" unicode="С" d="M545 129l13 -113q-90 -28 -221 -28q-160 0 -225 80t-65 277t65 277t225 80q116 0 207 -23l-13 -114q-81 5 -194 5q-75 0 -102.5 -47.5t-27.5 -177.5t27.5 -177.5t102.5 -47.5q139 0 208 9z"/>
<glyph glyph-name="uni0422" horiz-adv-x="601" unicode="Т" d="M583 566h-206v-566h-153v566h-206v124h565v-124z"/>
<glyph glyph-name="uni0423" horiz-adv-x="592" unicode="У" d="M590 690l-169 -512q-30 -91 -68 -136.5t-106 -51.5q-7 -1 -24 -1q-72 0 -142 16l17 108q11 0 36 -1.5t36 -1.5q45 0 63.5 12.5t33.5 51.5l8 22h-37q-67 0 -89 69l-142 425h156l109 -365q3 -12 18 -12h25l119 377h156z"/>
<glyph glyph-name="uni0424" horiz-adv-x="843" unicode="Ф" d="M491 533v-353q98 7 132 43.5t34 129.5q0 98 -34 135.5t-132 44.5zM352 180v353q-98 -6 -132 -43.5t-34 -136.5q0 -94 34 -130t132 -43zM498 739v-90q173 -9 243 -74.5t71 -221.5q-1 -151 -70.5 -215t-243.5 -74v-90h-153v90q-173 9 -243 73.5t-70 215.5q0 156 70 221.5 t243 74.5v90h153z"/>
<glyph glyph-name="uni0425" horiz-adv-x="641" unicode="Х" d="M326 307h-12l-147 -307h-157l180 354l-166 336h156l133 -285h15l133 285h156l-166 -336l180 -354h-158z"/>
<glyph glyph-name="uni0426" horiz-adv-x="712" unicode="Ц" d="M581 -151l-12 151h-497v690h152v-580h230v580h153v-580h82v-261h-108z"/>
<glyph glyph-name="uni0427" horiz-adv-x="657" unicode="Ч" d="M585 690v-690h-152v286q-107 -52 -211 -52q-89 0 -131.5 40.5t-42.5 126.5v289h152v-256v-7q0 -35 17.5 -49.5t59.5 -14.5q77 0 156 31v296h152z"/>
<glyph glyph-name="uni0428" horiz-adv-x="971" unicode="Ш" d="M899 690v-690h-827v690h149v-580h190v580h149v-580h190v580h149z"/>
<glyph glyph-name="uni0429" horiz-adv-x="999" unicode="Щ" d="M868 -151l-12 151h-784v690h149v-580h188v580h148v-580h189v580h148v-580h81v-261h-107z"/>
<glyph glyph-name="uni042A" horiz-adv-x="763" unicode="Ъ" d="M382 110h98q60 0 78.5 20.5t18.5 85.5t-18.5 88t-78.5 23h-98v-217zM382 434h98q142 0 196 -48t54 -175q0 -125 -51 -172t-173 -47q-179 0 -275 8h-2v566h-212v124h365v-256z"/>
<glyph glyph-name="uni042B" horiz-adv-x="897" unicode="Ы" d="M224 110h100q61 0 79 20.5t18 85.5t-18.5 88t-78.5 23h-100v-217zM825 690v-690h-152v690h152zM224 434h100q142 0 196.5 -48t54.5 -175q0 -125 -51 -172t-174 -47q-179 0 -274 8h-4v690h152v-256z"/>
<glyph glyph-name="uni042C" horiz-adv-x="611" unicode="Ь" d="M224 110h102q61 0 79.5 20.5t18.5 85.5t-18.5 88t-79.5 23h-102v-217zM224 434h102q142 0 196.5 -48t54.5 -175q0 -125 -51 -172t-174 -47q-181 0 -276 8h-4v690h152v-256z"/>
<glyph glyph-name="uni042D" d="M51 565l-13 114q91 23 210 23q163 0 229 -80t66 -277t-66 -277t-229 -80q-128 0 -215 28l13 114q74 -10 202 -10q75 0 104.5 40t33.5 147h-282v106h280q-6 88 -36.5 122.5t-99.5 34.5q-89 0 -197 -5z" unicode="Э"/>
<glyph glyph-name="uni042E" horiz-adv-x="971" unicode="Ю" d="M629 110q77 0 105 49t29 186q-1 137 -29 186t-105 49q-75 0 -101.5 -49t-26.5 -186t26.5 -186t101.5 -49zM225 412h128q9 165 71 228t205 63q165 0 230 -76.5t65 -281.5t-65 -281.5t-230 -76.5q-148 0 -209.5 68t-67.5 247h-127v-302h-153v690h153v-278z"/>
<glyph glyph-name="uni042F" horiz-adv-x="635" unicode="Я" d="M412 382v199l-104 1q-57 0 -77.5 -20t-21.5 -77q0 -57 21.5 -80t77.5 -23h104zM564 0h-152v265h-101q-58 0 -71 -59l-51 -206h-160l56 211q20 86 104 102l-1 6q-71 9 -101.5 52.5t-30.5 123.5q0 112 57.5 158t190.5 46q168 0 260 -9v-690z"/>
<glyph glyph-name="uni0430" horiz-adv-x="571" unicode="а" d="M184 169v-19q0 -51 57 -51q59 0 124 48v69h-133q-48 -1 -48 -47zM75 383l-13 100q133 24 256 24q100 0 147.5 -40.5t47.5 -140.5v-326h-117l-15 75q-74 -87 -183 -87q-71 0 -115.5 37.5t-44.5 104.5v50q0 59 40 92t111 33h176v22q-1 37 -17.5 50.5t-63.5 13.5 q-81 0 -209 -8z"/>
<glyph glyph-name="uni0431" horiz-adv-x="593" unicode="б" d="M305 375q-61 0 -80 -28.5t-19 -103.5q0 -85 20 -115t75 -30t75 29.5t20 114.5q0 80 -18.5 106.5t-72.5 26.5zM499 740l27 -114q-40 -23 -80 -31t-85 -11.5t-76 -12.5q-82 -22 -107 -101q-9 -24 -17 -73h3q29 39 68.5 59.5t110.5 20.5q114 0 161 -54.5t47 -179.5 q0 -131 -54.5 -193t-190.5 -62q-51 0 -90 8.5t-65.5 22t-45 38t-29 47.5t-15.5 59.5t-6.5 65.5t-1.5 74q0 81 7 136.5t26 106t55.5 83.5t93.5 51q37 12 125.5 23t138.5 37z"/>
<glyph glyph-name="uni0432" horiz-adv-x="570" unicode="в" d="M201 95h100q48 0 66 11.5t18 46.5q0 33 -19 45.5t-68 12.5h-97v-116zM201 297h97q45 0 61.5 11t16.5 42q0 28 -18 38t-67 10l-90 1v-102zM406 256v-4q68 -5 97 -37t29 -93q0 -74 -47 -102t-159 -28q-169 0 -264 6v495q85 6 236 6q122 0 169 -27.5t47 -103.5 q0 -53 -25.5 -80.5t-82.5 -31.5z"/>
<glyph glyph-name="uni0433" horiz-adv-x="480" unicode="г" d="M60 0v380q0 119 127 119q198 0 279 -13l-6 -103h-208q-24 0 -34.5 -10.5t-10.5 -34.5v-338h-147z"/>
<glyph glyph-name="uni0434" horiz-adv-x="629" unicode="д" d="M388 106v287h-64q-45 0 -50 -47q-17 -147 -61 -240h175zM604 106v-247h-96l-11 141h-369l-10 -141h-97v247h62q44 113 61 267q12 120 141 120h242v-387h77z"/>
<glyph glyph-name="uni0435" horiz-adv-x="563" unicode="е" d="M195 286h140q28 0 37 13t9 38q0 35 -18 48.5t-66 13.5q-57 0 -78 -22.5t-24 -90.5zM376 197h-178q7 -54 33 -72.5t84 -18.5q79 0 184 11l14 -92q-77 -37 -215 -37q-139 0 -198 60t-59 198q0 144 58 202.5t193 58.5q123 0 178 -42.5t56 -129.5q0 -69 -35.5 -103.5 t-114.5 -34.5z"/>
<glyph glyph-name="uni0436" horiz-adv-x="822" unicode="ж" d="M610 260v-4q22 -3 37.5 -6.5t30.5 -11.5t24.5 -14.5t21 -24t18 -30.5t18 -43.5t19 -54.5t22.5 -71h-149q-49 140 -69 173t-63 33h-49q6 -22 6 -43v-163h-130v163q0 18 5 43h-51q-41 0 -60.5 -32.5t-70.5 -173.5h-149q16 49 23 71t19 54.5t18 44t18 30t21 24t24 14.5 t30.5 12t38.5 6v4q-74 9 -100 43.5t-67 158.5q-6 20 -10 31h145q41 -119 62 -153t64 -34h46q-6 28 -6 59v128h130v-128q0 -31 -6 -59h43q44 0 64 33t62 154h146q-46 -138 -62 -168q-26 -45 -75 -58q-16 -4 -39 -7z"/>
<glyph glyph-name="uni0437" horiz-adv-x="517" unicode="з" d="M54 381l-10 102q73 22 173 22q137 0 189 -26t52 -108q0 -57 -24 -84t-81 -31v-4q66 -5 95.5 -36.5t29.5 -92.5q0 -82 -51.5 -108.5t-176.5 -26.5q-128 0 -221 20l10 102q108 -10 200 -10q53 0 70 9.5t17 42.5q0 30 -17.5 39.5t-68.5 10.5l-142 2v93l141 2q44 0 59.5 9.5 t15.5 39.5q0 27 -18 35t-72 8q-92 0 -170 -10z"/>
<glyph glyph-name="uni0438" horiz-adv-x="606" unicode="и" d="M543 -1h-132v258q0 29 5 79h-4q-11 -36 -37 -73l-186 -263h-126v493h131v-263q0 -28 -5 -73h3q13 33 37 67l188 269h126v-494z"/>
<glyph glyph-name="uni0439" horiz-adv-x="606" unicode="й" d="M543 -1h-132v258q0 29 5 79h-4q-11 -36 -37 -73l-186 -263h-126v493h131v-263q0 -28 -5 -73h3q13 33 37 67l188 269h126v-494zM368 712h98q1 -6 1 -17q0 -58 -45 -98t-119 -40q-75 0 -120.5 40t-45.5 97q0 12 1 18h98v-9q0 -73 67 -73q65 0 65 73v9z"/>
<glyph glyph-name="uni043A" horiz-adv-x="564" unicode="к" d="M351 259v-4q30 -4 49 -8.5t37 -18.5t27.5 -26t24.5 -46.5t24.5 -63.5t29.5 -92h-154q-44 140 -65 172t-74 32h-45q5 -25 5 -42v-162h-147v493h147v-126q0 -30 -6 -60h37q57 0 79 32.5t57 153.5h150q-46 -139 -62 -168q-24 -44 -71 -57q-17 -5 -43 -9z"/>
<glyph glyph-name="uni043B" horiz-adv-x="591" unicode="л" d="M528 493v-493h-148v390h-64q-25 0 -36.5 -11t-15.5 -38q-21 -166 -36 -224q-26 -124 -162 -124q-26 0 -39 2l-15 110q41 7 58.5 16.5t25.5 36.5q19 56 32 210q12 125 137 125h263z"/>
<glyph glyph-name="uni043C" horiz-adv-x="783" unicode="м" d="M527 493h134q50 0 52 -51l16 -442h-135l-14 385h-14l-80 -276q-11 -46 -55 -46h-80q-46 0 -57 46l-79 276h-14l-12 -385h-134l15 442q0 51 52 51h132q46 0 55 -46l62 -218q5 -19 14 -73h11q1 5 5.5 32t8.5 41l61 218q9 46 56 46z"/>
<glyph glyph-name="uni043D" horiz-adv-x="604" unicode="н" d="M541 493v-493h-145v209h-187v-209h-146v493h146v-181h187v181h145z"/>
<glyph glyph-name="uni043E" horiz-adv-x="589" unicode="о" d="M295 396q-59 0 -79 -30t-20 -120q0 -88 20 -118t79 -30q58 0 78.5 30t20.5 118q0 89 -20.5 119.5t-78.5 30.5zM295 507q139 0 196 -59t57 -202q0 -142 -57 -200.5t-196 -58.5t-196.5 58.5t-57.5 200.5q0 143 57.5 202t196.5 59z"/>
<glyph glyph-name="uni043F" horiz-adv-x="595" unicode="п" d="M532 494v-494h-143v388h-182v-388h-144v494h469z"/>
<glyph glyph-name="uni0440" horiz-adv-x="603" unicode="р" d="M210 343v-226q78 -20 112 -20q50 0 68.5 28t18.5 117q0 87 -17 117.5t-60 30.5q-50 0 -122 -47zM183 493l11 -72q31 37 85.5 61t110.5 24q171 0 171 -264q0 -142 -46 -198.5t-143 -56.5q-100 0 -165 48q3 -39 3 -79v-27v-119h-147v683h120z"/>
<glyph glyph-name="uni0441" horiz-adv-x="509" unicode="с" d="M466 117l14 -96q-77 -33 -192 -33q-136 0 -191.5 58.5t-55.5 200.5q0 143 56 201.5t193 58.5q112 0 182 -31l-16 -92q-108 2 -141 2q-68 0 -93.5 -29t-25.5 -110t25.5 -110t93.5 -29q88 0 151 9z"/>
<glyph glyph-name="uni0442" horiz-adv-x="513" unicode="т" d="M494 379h-164v-379h-146v379h-164v114h474v-114z"/>
<glyph glyph-name="uni0443" horiz-adv-x="565" unicode="у" d="M555 493l-175 -500q-39 -122 -135 -171q-49 -28 -119 -28q-38 0 -83 8l12 98q5 0 13 -0.5t13 -0.5q69 0 103 21q39 23 62 80h-28q-38 0 -49 36l-160 457h157l92 -319q12 -46 16 -74h12q16 57 20 74l91 319h158z"/>
<glyph glyph-name="uni0444" horiz-adv-x="748" unicode="ф" d="M434 398v-301q75 7 103.5 39t28.5 110q0 79 -28.5 112t-103.5 40zM313 97v301q-75 -7 -103.5 -40t-28.5 -112q0 -78 28.5 -110t103.5 -39zM440 700v-195q144 -10 205.5 -70t61.5 -189q0 -128 -61.5 -187t-205.5 -69v-180h-133v180q-144 10 -205.5 69t-61.5 187 q0 129 61.5 189t205.5 70v195h133z"/>
<glyph glyph-name="uni0445" horiz-adv-x="566" unicode="х" d="M286 207h-6l-117 -207h-152l152 253l-140 240h151l105 -190h9l105 190h151l-140 -240l151 -253h-152z"/>
<glyph glyph-name="uni0446" horiz-adv-x="625" unicode="ц" d="M602 106v-247h-99l-11 141h-429v493h146v-387h171v387h146v-387h76z"/>
<glyph glyph-name="uni0447" horiz-adv-x="567" unicode="ч" d="M502 493v-493h-146v184q-85 -29 -166 -29q-147 0 -147 113v225h146v-179q0 -26 11.5 -36.5t39.5 -10.5q57 0 116 21v205h146z"/>
<glyph glyph-name="uni0448" horiz-adv-x="836" unicode="ш" d="M773 493v-493h-710v493h142v-387h148v387h130v-387h148v387h142z"/>
<glyph glyph-name="uni0449" horiz-adv-x="872" unicode="щ" d="M847 106v-247h-97l-12 141h-675v493h142v-387h147v387h131v-387h147v387h143v-387h74z"/>
<glyph glyph-name="uni044A" horiz-adv-x="654" unicode="ъ" d="M326 98h73q45 0 60.5 13t15.5 53q0 38 -15.5 51.5t-60.5 13.5h-73v-131zM326 322h73q129 0 177 -34.5t48 -129.5q0 -93 -46.5 -128.5t-154.5 -35.5q-152 0 -237 6h-2v384h-165v109h307v-171z"/>
<glyph glyph-name="uni044B" horiz-adv-x="779" unicode="ы" d="M205 98h74q46 0 61.5 12.5t15.5 53.5q0 39 -15.5 52t-61.5 13h-74v-131zM716 493v-493h-148v493h148zM205 322h74q130 0 178 -34.5t48 -129.5q0 -93 -46 -128.5t-154 -35.5q-153 0 -238 6h-4v493h142v-171z"/>
<glyph glyph-name="uni044C" horiz-adv-x="537" unicode="ь" d="M205 98h76q46 0 61.5 12.5t15.5 53.5q0 39 -15.5 52t-61.5 13h-76v-131zM205 322h76q130 0 178 -34.5t48 -129.5q0 -93 -46.5 -128.5t-154.5 -35.5q-154 0 -239 6h-4v493h142v-171z"/>
<glyph glyph-name="uni044D" horiz-adv-x="534" unicode="э" d="M49 385l-12 94q75 25 189 25q148 0 207.5 -57.5t59.5 -202.5q0 -142 -60 -199t-207 -57q-117 0 -194 26l12 96q92 -5 182 -5q64 0 88.5 19.5t28.5 80.5h-248v91h247q-7 53 -31 72t-79 19h-6q-59 0 -177 -2z"/>
<glyph glyph-name="uni044E" horiz-adv-x="831" unicode="ю" d="M538 106q58 0 78 28.5t20 113.5q0 86 -20 114.5t-78 28.5t-77 -28.5t-19 -114.5q0 -85 19 -113.5t77 -28.5zM210 305h97q9 116 61 159t172 43q140 0 194.5 -54t54.5 -207q0 -149 -55 -202.5t-194 -53.5q-123 0 -175 45t-59 166h-96v-201h-147v493h147v-188z"/>
<glyph glyph-name="uni044F" horiz-adv-x="564" unicode="я" d="M358 265v129h-91q-44 0 -57 -11.5t-13 -48.5q0 -42 13 -55.5t57 -13.5h91zM161 210v5q-108 20 -108 133q0 87 44 121t167 34q166 0 238 -7v-496h-144v168h-91q-50 0 -57 -36l-33 -132h-152l42 153q14 49 94 57z"/>
<glyph glyph-name="uni0451" horiz-adv-x="563" unicode="ё" d="M195 286h140q28 0 37 13t9 38q0 35 -18 48.5t-66 13.5q-57 0 -78 -22.5t-24 -90.5zM376 197h-178q7 -54 33 -72.5t84 -18.5q79 0 184 11l14 -92q-77 -37 -215 -37q-139 0 -198 60t-59 198q0 144 58 202.5t193 58.5q123 0 178 -42.5t56 -129.5q0 -69 -35.5 -103.5 t-114.5 -34.5zM409 580h-49q-33 0 -33 33v58q0 33 33 33h49q32 0 32 -33v-58q0 -33 -32 -33zM227 580h-49q-32 0 -32 33v58q0 33 32 33h49q32 0 32 -33v-58q0 -33 -32 -33z"/>
<glyph glyph-name="uni0452" horiz-adv-x="606" unicode="ђ" d="M234 480v-45q0 -47 -7 -94q97 72 198 72q140 0 140 -137v-276h-149v231q0 31 -12.5 42.5t-46.5 11.5q-50 0 -124 -35v-250h-147v480h-67v72h67v148h147v-148h172v-72h-171z"/>
<glyph glyph-name="uni0453" horiz-adv-x="480" unicode="ѓ" d="M60 0v380q0 119 127 119q198 0 279 -13l-6 -103h-208q-24 0 -34.5 -10.5t-10.5 -34.5v-338h-147zM449 650l-226 -110l-43 64l201 148z"/>
<glyph glyph-name="uni0454" horiz-adv-x="534" unicode="є" d="M490 110l12 -96q-77 -26 -194 -26q-147 0 -207 57t-60 199q0 145 59.5 202.5t207.5 57.5q118 0 190 -25l-13 -94q-116 2 -177 2h-6q-55 0 -79 -19t-30 -72h247v-91h-249q5 -61 30 -80.5t87 -19.5q92 0 182 5z"/>
<glyph glyph-name="uni0455" horiz-adv-x="530" unicode="ѕ" d="M281 183l-123 33q-67 20 -93 54.5t-26 95.5q0 77 47 109t162 32q132 -2 229 -19l-10 -95q-128 2 -191 2q-35 0 -48.5 -0.5t-27 -3.5t-16.5 -9.5t-3 -19.5q0 -5 0.5 -9t2.5 -7.5t3.5 -5.5t5.5 -4.5t6.5 -3.5t9 -3.5t10 -3.5t13 -3.5t14.5 -3.5l126 -34q66 -19 94 -50.5 t28 -93.5q0 -88 -51 -119.5t-175 -31.5q-120 0 -221 17l9 96q36 -2 171 -2q77 0 100.5 6.5t23.5 30.5q0 5 -0.5 9t-2.5 7.5t-4 5.5t-6.5 4.5t-7 4t-9.5 4t-11 3.5l-14 3.5t-15 4.5z"/>
<glyph glyph-name="uni0456" horiz-adv-x="281" unicode="і" d="M214 0h-147v493h147v-493zM108 711h65q43 0 43 -43v-54q0 -43 -43 -43h-65q-43 0 -43 43v54q0 43 43 43z"/>
<glyph glyph-name="uni0457" horiz-adv-x="282" unicode="ї" d="M215 0h-148v493h148v-493zM207 704h49q32 0 32 -33v-58q0 -33 -32 -33h-49q-33 0 -33 33v58q0 33 33 33zM25 704h49q32 0 32 -33v-58q0 -33 -32 -33h-49q-32 0 -32 33v58q0 33 32 33z"/>
<glyph glyph-name="uni0458" horiz-adv-x="282" unicode="ј" d="M215 493v-470q0 -69 -34 -128.5t-93 -91.5l-81 65q60 68 60 155v470h148zM107 715h66q43 0 43 -43v-54q0 -43 -43 -43h-66q-43 0 -43 43v54q0 43 43 43z"/>
<glyph glyph-name="uni0459" horiz-adv-x="826" unicode="љ" d="M503 96h71q46 0 61.5 13t15.5 53q0 39 -15.5 52.5t-61.5 13.5h-71v-132zM503 321h71q127 0 174.5 -35t47.5 -129q0 -93 -45.5 -128t-152.5 -35q-125 0 -230 6h-2v396h-49q-25 0 -35.5 -9.5t-13.5 -34.5q-20 -173 -43 -240q-38 -119 -158 -119q-18 0 -36 3l-10 101 q20 4 31.5 7.5t26 16t22.5 32.5q19 46 40 226q12 114 130 114h232v-172z"/>
<glyph glyph-name="uni045A" horiz-adv-x="825" unicode="њ" d="M502 96h76q43 0 58 13t15 51q0 37 -14.5 50t-58.5 13h-76v-127zM502 314h76q125 0 171 -33t46 -124q0 -93 -44.5 -128t-149.5 -35q-151 0 -235 6h-2v219h-166v-219h-135v493h135v-178h166v178h138v-179z"/>
<glyph glyph-name="uni045B" horiz-adv-x="606" unicode="ћ" d="M234 480v-45q0 -47 -7 -94q97 72 198 72q138 0 140 -137v-253q0 -69 -33 -128.5t-90 -91.5l-83 65q57 66 57 155v208q0 30 -13 42t-46 12q-50 0 -124 -35v-250h-147v480h-67v72h67v148h147v-148h172v-72h-171z"/>
<glyph glyph-name="uni045C" horiz-adv-x="564" unicode="ќ" d="M351 259v-4q30 -4 49 -8.5t37 -18.5t27.5 -26t24.5 -46.5t24.5 -63.5t29.5 -92h-154q-44 140 -65 172t-74 32h-45q5 -25 5 -42v-162h-147v493h147v-126q0 -30 -6 -60h37q57 0 79 32.5t57 153.5h150q-46 -139 -62 -168q-24 -44 -71 -57q-17 -5 -43 -9zM253 540l-44 64 l201 148l68 -102z"/>
<glyph glyph-name="uni045D" horiz-adv-x="606" unicode="ѝ" d="M543 -1h-132v258q0 29 5 79h-4q-11 -36 -37 -73l-186 -263h-126v493h131v-263q0 -28 -5 -73h3q13 33 37 67l188 269h126v-494zM374 604l-44 -64l-225 110l68 102z"/>
<glyph glyph-name="uni045E" horiz-adv-x="565" unicode="ў" d="M555 493l-175 -500q-39 -122 -135 -171q-49 -28 -119 -28q-38 0 -83 8l12 98q5 0 13 -0.5t13 -0.5q69 0 103 21q39 23 62 80h-28q-38 0 -49 36l-160 457h157l92 -319q12 -46 16 -74h12q16 57 20 74l91 319h158zM346 712h98q1 -6 1 -18q0 -57 -45 -96.5t-119 -39.5 q-75 0 -120.5 40t-45.5 98q0 10 1 16h98v-9q0 -73 67 -73q65 0 65 72v10z"/>
<glyph glyph-name="uni045F" horiz-adv-x="601" unicode="џ" d="M538 493v-493h-179l-10 -163h-98l-11 163h-177v493h147v-387h182v387h146z"/>
<glyph glyph-name="uni0490" horiz-adv-x="538" unicode="Ґ" d="M525 676l-7 -106h-242q-29 0 -41.5 -12.5t-12.5 -42.5v-515h-153v546q0 65 41 106t104 41q133 0 197 -4l14 153h100v-166z"/>
<glyph glyph-name="uni0491" horiz-adv-x="481" unicode="ґ" d="M466 638v-152l-6 -103h-207q-25 0 -35.5 -10.5t-10.5 -34.5v-338h-146v380q0 119 126 119q115 0 171 -3l13 142h95z"/>
<glyph glyph-name="uni04B0" horiz-adv-x="616" unicode="Ұ" d="M525 208h-140v-208h-152v208h-141v81h111l-198 401h159l114 -253q10 -22 26 -87h10q16 65 26 87l114 253h158l-197 -401h110v-81z"/>
<glyph glyph-name="uni04B1" horiz-adv-x="616" unicode="ұ" d="M414 96h111v-90h-140v-196h-153v196h-140v90h110l-196 397h158l114 -248q5 -12 9.5 -26.5t9.5 -34t7 -27.5h9q17 67 26 88l113 248h159z"/>
<glyph glyph-name="uni04B6" horiz-adv-x="694" unicode="Ҷ" d="M672 102v-253h-107l-13 151h-120v283q-108 -49 -208 -49q-91 0 -133.5 40.5t-42.5 126.5v289h153v-256v-9q0 -34 18 -48.5t60 -14.5q75 0 153 31v297h153v-588h87z"/>
<glyph glyph-name="uni04B7" horiz-adv-x="600" unicode="ҷ" d="M576 106v-247h-98l-11 141h-113v184q-85 -29 -165 -29q-146 0 -146 113v225h146v-179q0 -26 11.5 -36.5t38.5 -10.5q57 0 115 21v205h146v-387h76z"/>
<glyph glyph-name="uni04BA" horiz-adv-x="657" unicode="Һ" d="M224 690v-283q107 49 209 49q91 0 134 -40.5t43 -126.5v-289h-153v256v7q0 36 -18 50.5t-61 14.5q-78 0 -154 -31v-297h-152v690h152z"/>
<glyph glyph-name="uni04C0" horiz-adv-x="296" unicode="Ӏ" d="M224 0h-152v690h152v-690z"/>
<glyph glyph-name="Wgrave" horiz-adv-x="973" unicode="Ẁ" d="M947 690l-109 -648q-4 -19 -19 -30.5t-36 -11.5h-146q-21 0 -36 12t-18 31l-75 451q-8 44 -12 87h-19q0 -3 -4.5 -37t-7.5 -51l-74 -450q-3 -19 -18.5 -31t-36.5 -12h-146q-20 0 -35.5 11.5t-19.5 30.5l-109 648h156l67 -479q6 -45 9 -100h20q3 28 15 100l74 432 q3 21 17.5 34t36.5 13h132q21 0 35.5 -13t17.5 -34l74 -433q12 -74 14 -99h21q4 57 9 98l68 481h155zM559 786l-44 -64l-225 109l68 103z"/>
<glyph glyph-name="wgrave" horiz-adv-x="847" unicode="ẁ" d="M831 493l-121 -454q-10 -39 -51 -39h-116q-20 0 -35 12.5t-18 32.5l-50 279q-1 9 -4.5 38t-6.5 45h-12l-12 -83l-49 -279q-3 -20 -18 -32.5t-36 -12.5h-114q-41 0 -51 39l-121 454h149l67 -320q10 -54 12 -81h13q2 14 6.5 41t6.5 40l50 276q7 44 51 44h104q20 0 34.5 -12 t17.5 -33l49 -275q2 -14 7 -41t7 -40h12l12 81l68 320h149zM496 604l-43 -64l-225 110l67 102z"/>
<glyph glyph-name="Wacute" horiz-adv-x="973" unicode="Ẃ" d="M947 690l-109 -648q-4 -19 -19 -30.5t-36 -11.5h-146q-21 0 -36 12t-18 31l-75 451q-8 44 -12 87h-19q0 -3 -4.5 -37t-7.5 -51l-74 -450q-3 -19 -18.5 -31t-36.5 -12h-146q-20 0 -35.5 11.5t-19.5 30.5l-109 648h156l67 -479q6 -45 9 -100h20q3 28 15 100l74 432 q3 21 17.5 34t36.5 13h132q21 0 35.5 -13t17.5 -34l74 -433q12 -74 14 -99h21q4 57 9 98l68 481h155zM672 831l-225 -109l-43 64l201 148z"/>
<glyph glyph-name="wacute" horiz-adv-x="847" unicode="ẃ" d="M831 493l-121 -454q-10 -39 -51 -39h-116q-20 0 -35 12.5t-18 32.5l-50 279q-1 9 -4.5 38t-6.5 45h-12l-12 -83l-49 -279q-3 -20 -18 -32.5t-36 -12.5h-114q-41 0 -51 39l-121 454h149l67 -320q10 -54 12 -81h13q2 14 6.5 41t6.5 40l50 276q7 44 51 44h104q20 0 34.5 -12 t17.5 -33l49 -275q2 -14 7 -41t7 -40h12l12 81l68 320h149zM610 650l-225 -110l-44 64l201 148z"/>
<glyph glyph-name="Wdieresis" horiz-adv-x="973" unicode="Ẅ" d="M947 690l-109 -648q-4 -19 -19 -30.5t-36 -11.5h-146q-21 0 -36 12t-18 31l-75 451q-8 44 -12 87h-19q0 -3 -4.5 -37t-7.5 -51l-74 -450q-3 -19 -18.5 -31t-36.5 -12h-146q-20 0 -35.5 11.5t-19.5 30.5l-109 648h156l67 -479q6 -45 9 -100h20q3 28 15 100l74 432 q3 21 17.5 34t36.5 13h132q21 0 35.5 -13t17.5 -34l74 -433q12 -74 14 -99h21q4 57 9 98l68 481h155zM553 886h49q33 0 33 -33v-58q0 -33 -33 -33h-49q-33 0 -33 33v58q0 33 33 33zM371 886h49q32 0 32 -33v-58q0 -33 -32 -33h-49q-32 0 -32 33v58q0 33 32 33z"/>
<glyph glyph-name="wdieresis" horiz-adv-x="847" unicode="ẅ" d="M831 493l-121 -454q-10 -39 -51 -39h-116q-20 0 -35 12.5t-18 32.5l-50 279q-1 9 -4.5 38t-6.5 45h-12l-12 -83l-49 -279q-3 -20 -18 -32.5t-36 -12.5h-114q-41 0 -51 39l-121 454h149l67 -320q10 -54 12 -81h13q2 14 6.5 41t6.5 40l50 276q7 44 51 44h104q20 0 34.5 -12 t17.5 -33l49 -275q2 -14 7 -41t7 -40h12l12 81l68 320h149zM491 704h48q33 0 33 -33v-58q0 -33 -33 -33h-48q-33 0 -33 33v58q0 33 33 33zM308 704h49q33 0 33 -33v-58q0 -33 -33 -33h-49q-32 0 -32 33v58q0 33 32 33z"/>
<glyph glyph-name="Ygrave" horiz-adv-x="608" unicode="Ỳ" d="M381 228v-228h-153v228l-228 462h159l115 -253q10 -22 26 -87h10q12 54 25 87l115 253h157zM332 723l-225 109l67 103l202 -149z"/>
<glyph glyph-name="ygrave" horiz-adv-x="562" unicode="ỳ" d="M554 493l-175 -500q-29 -82 -86.5 -139t-151.5 -57q-10 0 -34 2l-12 87q60 16 94 41.5t53 68.5l2 4h-28q-37 0 -48 36l-161 457h158l92 -319q9 -35 15 -74h13q3 12 10 37.5t10 36.5l91 319h158zM312 540l-225 110l68 102l201 -148z"/>
<glyph glyph-name="endash" horiz-adv-x="561" unicode="–" d="M503 206h-445v97h445v-97z"/>
<glyph glyph-name="emdash" horiz-adv-x="857" unicode="—" d="M799 206h-741v97h741v-97z"/>
<glyph glyph-name="quoteleft" horiz-adv-x="223" unicode="‘" d="M129 450h-33q-28 0 -38.5 10.5t-10.5 36.5v59q0 92 49 165l58 -16q-14 -55 -14 -117q40 0 40 -42l-1 -49q-2 -26 -12.5 -36.5t-37.5 -10.5z"/>
<glyph glyph-name="quoteright" horiz-adv-x="220" unicode="’" d="M93 714h33q28 0 38.5 -10.5t10.5 -37.5v-58q-1 -91 -49 -166l-58 17q12 48 14 117q-40 0 -40 41l1 49q1 27 12 37.5t38 10.5z"/>
<glyph glyph-name="quotesinglbase" horiz-adv-x="234" unicode="‚" d="M101 144h34q27 0 37 -10.5t10 -38.5v-61q0 -97 -47 -172l-59 17q14 56 14 122q-38 0 -40 43l1 51q2 28 12.5 38.5t37.5 10.5z"/>
<glyph glyph-name="quotedblleft" horiz-adv-x="402" unicode="“" d="M308 450h-33q-27 0 -37.5 10.5t-11.5 36.5v59q1 92 49 165l59 -16q-14 -50 -14 -117q38 0 40 -42l-2 -49q-1 -26 -12 -36.5t-38 -10.5zM129 450h-33q-28 0 -38.5 10.5t-10.5 36.5v59q0 92 49 165l58 -16q-14 -55 -14 -117q40 0 40 -42l-1 -49q-2 -26 -12.5 -36.5 t-37.5 -10.5z"/>
<glyph glyph-name="quotedblright" horiz-adv-x="399" unicode="”" d="M272 714h34q27 0 37.5 -10.5t10.5 -37.5v-58q0 -91 -48 -166l-59 17q14 55 14 117q-38 0 -40 41l1 49q1 27 12.5 37.5t37.5 10.5zM93 714h33q28 0 38.5 -10.5t10.5 -37.5v-58q-1 -91 -49 -166l-58 17q12 48 14 117q-40 0 -40 41l1 49q1 27 12 37.5t38 10.5z"/>
<glyph glyph-name="quotedblbase" horiz-adv-x="413" unicode="„" d="M280 132h34q27 0 37.5 -10t10.5 -37v-58q0 -91 -48 -166l-59 17q14 55 14 117q-38 0 -40 41l1 49q1 27 12 37t38 10zM101 132h33q28 0 38.5 -10t10.5 -37v-58q-1 -91 -49 -166l-58 17q12 48 14 117q-40 0 -40 41l1 49q1 27 12 37t38 10z"/>
<glyph glyph-name="dagger" horiz-adv-x="471" unicode="†" d="M439 493v-112l-129 16v96h129zM32 381v112h129v-96zM297 -110h-123l7 521v74l-7 206h123l-7 -206v-74z"/>
<glyph glyph-name="daggerdbl" horiz-adv-x="508" unicode="‡" d="M329 184l129 16v-112h-129v96zM179 88h-129v112l129 -16v-96zM458 493v-112l-129 16v96h129zM50 381v112h129v-96zM310 -29l-54 -81l-61 123l5 322l-4 281l56 75l61 -124l-3 -316v-280z"/>
<glyph glyph-name="bullet" horiz-adv-x="372" unicode="•" d="M182 380h14q58 0 80.5 -22.5t22.5 -79.5v-15q0 -61 -22.5 -84.5t-80.5 -23.5h-14q-62 0 -85 23.5t-23 84.5v15q0 57 23.5 79.5t84.5 22.5z"/>
<glyph glyph-name="ellipsis" horiz-adv-x="893" unicode="…" d="M745 151h40q29 0 40.5 -11t11.5 -40v-48q0 -29 -11.5 -40.5t-40.5 -11.5h-40q-29 0 -40.5 11.5t-11.5 40.5v48q0 29 11.5 40t40.5 11zM421 151h40q29 0 40.5 -11t11.5 -40v-48q0 -29 -11.5 -40.5t-40.5 -11.5h-40q-29 0 -40.5 11.5t-11.5 40.5v48q0 29 11.5 40t40.5 11z M97 151h40q29 0 40.5 -11t11.5 -40v-48q0 -29 -11.5 -40.5t-40.5 -11.5h-40q-29 0 -40 11.5t-11 40.5v48q0 29 11 40t40 11z"/>
<glyph glyph-name="perthousand" horiz-adv-x="1295" unicode="‰" d="M1087 316q-36 0 -48.5 -24t-12.5 -98t12.5 -98.5t48.5 -24.5q38 0 50.5 24t12.5 99t-12.5 98.5t-50.5 23.5zM701 316q-36 0 -48.5 -22t-12.5 -90v-10v-10q0 -68 12.5 -90.5t48.5 -22.5q37 0 49.5 24t12.5 99q0 74 -12.5 98t-49.5 24zM1088 399q95 0 133 -45.5t38 -159.5 q0 -115 -38 -160.5t-133 -45.5t-133 45.5t-38 160.5q0 114 38 159.5t133 45.5zM701 399q96 0 134 -45.5t38 -159.5q0 -115 -38 -160.5t-134 -45.5q-95 0 -132.5 45.5t-37.5 160.5q0 114 37.5 159.5t132.5 45.5zM204 621q-36 0 -48.5 -24t-12.5 -99t12 -99t49 -24 q38 0 50.5 23.5t12.5 99.5q0 75 -12.5 99t-50.5 24zM293 0h-95l414 690h94zM205 703q96 0 134 -45t38 -160q0 -114 -38 -159.5t-134 -45.5q-95 0 -133 45.5t-38 159.5q0 115 38 160t133 45z"/>
<glyph glyph-name="guilsinglleft" horiz-adv-x="311" unicode="‹" d="M270 415l-105 -164l106 -169l-78 -49l-159 202v32l158 198z"/>
<glyph glyph-name="guilsinglright" horiz-adv-x="312" unicode="›" d="M278 267v-32l-160 -202l-78 49l107 169l-106 164l77 50z"/>
<glyph glyph-name="fraction" horiz-adv-x="160" unicode="⁄" d="M-80 0h-95l414 690h95z"/>
<glyph glyph-name="Euro" horiz-adv-x="639" unicode="€" d="M588 126l12 -110q-82 -28 -189 -28q-138 0 -207.5 60.5t-87.5 187.5h-77v94h435l-9 -94h-188q11 -59 40 -87.5t83 -31.5q30 -2 51 -2q74 0 137 11zM492 368h-452v95h76q19 123 88.5 181t206.5 58q93 0 174 -23l-13 -111q-59 8 -118 8q-30 0 -54 -3q-50 -5 -79 -31 t-42 -79h223z"/>
<glyph glyph-name="trademark" horiz-adv-x="980" unicode="™" d="M921 316h-94l-13 303h-10l-56 -216q-7 -31 -40 -31h-63q-32 0 -40 31l-56 216h-10l-12 -303h-94l14 343q2 37 36 37h96q31 0 39 -32l45 -172q2 -9 5 -27.5t5 -27.5h7q1 7 4.5 26.5t6.5 29.5l43 171q6 32 39 32h98q34 0 37 -37zM396 696v-80h-119v-300h-102v300h-119v80 h340z"/>
<glyph glyph-name="partialdiff" horiz-adv-x="589" unicode="∂" d="M277 107q61 0 84.5 50.5t31.5 160.5q-51 24 -100 24q-99 0 -106 -108q0 -3 -0.5 -9t-0.5 -9q0 -109 91 -109zM117 600v103q8 0 23.5 0.5t22.5 0.5q103 0 172 -14.5t118 -51t71 -99.5t22 -158q0 -28 -1 -43q-8 -185 -73.5 -267.5t-200.5 -82.5q-65 0 -112 19.5t-72 53.5 t-36.5 72t-11.5 82q0 3 0.5 11t0.5 11q6 93 59 155t156 62h2q85 0 140 -51q1 78 -21 118.5t-82 59.5t-177 19z"/>
<glyph glyph-name="emptyset" horiz-adv-x="685" unicode="∅" d="M359 171h-39q-7 0 -7 -8v-37q0 -7 7 -7h39q8 0 8 7v37q0 8 -8 8zM312 241h54q0 35 14.5 64.5t32.5 46.5t32.5 43.5t14.5 56.5q0 93 -117 93q-51 0 -122 -11l3 -45q60 9 119 9q66 0 66 -46q0 -21 -15 -44.5t-33.5 -42.5t-33.5 -52t-15 -72zM343 633q121 0 206.5 -85.5 t85.5 -206.5t-85.5 -207t-206.5 -86t-207 86t-86 207t86 206.5t207 85.5z"/>
<glyph glyph-name="product" horiz-adv-x="715" unicode="∏" d="M683 578h-87v-675h-147v675h-183v-675h-147v675h-87v112h651v-112z"/>
<glyph glyph-name="summation" horiz-adv-x="596" unicode="∑" d="M546 580h-327l142 -246l-156 -360h351v-110h-515v110l156 360l-144 246v110h493v-110z"/>
<glyph glyph-name="minus" horiz-adv-x="579" unicode="−" d="M519 241h-459v105h459v-105z"/>
<glyph glyph-name="radical" horiz-adv-x="578" unicode="√" d="M568 876l-224 -868q-3 -8 -13 -8h-174q-11 0 -13 8l-125 485h119l99 -398h13l198 781h120z"/>
<glyph glyph-name="infinity" horiz-adv-x="768" unicode="∞" d="M546 250q64 0 64 55q0 52 -61 52q-36 0 -58 -14.5t-47 -43.5q43 -49 102 -49zM224 250q51 0 101 53q-23 28 -45 41t-59 13q-63 0 -63 -52q0 -55 66 -55zM577 453q62 0 104.5 -37t42.5 -107q0 -73 -46 -113.5t-115 -40.5q-95 0 -178 81q-90 -81 -184 -81q-66 0 -111.5 41 t-45.5 113q0 71 43.5 107.5t111.5 36.5q98 0 186 -86q97 86 192 86z"/>
<glyph glyph-name="integral" horiz-adv-x="360" unicode="∫" d="M138 -56l-47 637v14q0 58 32.5 88.5t88.5 30.5h27q60 0 94 -4l-9 -106h-62q-23 0 -32.5 -9t-9.5 -34v-8l49 -642q1 -8 1 -22q0 -57 -30.5 -84t-99.5 -27q-86 0 -113 4l9 106h59q23 0 33 10t10 34v12z"/>
<glyph glyph-name="approxequal" horiz-adv-x="581" unicode="≈" d="M156 118h-92q-5 27 -5 44q0 53 29 79.5t79 26.5h12q28 -2 105.5 -25.5t105.5 -25.5h6q18 0 22.5 9t4.5 36h93q5 -27 5 -45q0 -102 -112 -102h-8q-31 1 -108 24.5t-103 25.5h-4q-20 0 -25 -9.5t-5 -37.5zM156 315h-92q-5 27 -5 43q0 52 29 79t79 27h12q27 -2 105 -25 t106 -25h6q18 0 22.5 9t4.5 36h93q5 -27 5 -45q0 -103 -112 -103h-8q-31 1 -108 24.5t-103 25.5h-6q-18 0 -23 -9.5t-5 -36.5z"/>
<glyph glyph-name="notequal" horiz-adv-x="615" unicode="≠" d="M78 243h459v-105h-247l-48 -135l-92 31l38 104h-110v105zM537 456v-105h-459v105h225l48 134l89 -32l-35 -102h132z"/>
<glyph glyph-name="lessequal" horiz-adv-x="557" unicode="≤" d="M493 51h-440v110h440v-110zM490 447l-300 -70l300 -66v-115l-426 124v114l426 128v-115z"/>
<glyph glyph-name="greaterequal" horiz-adv-x="557" unicode="≥" d="M504 51h-440v110h440v-110zM493 434v-114l-426 -124v115l300 66l-300 70v115z"/>
<glyph glyph-name="lozenge" horiz-adv-x="570" unicode="◊" d="M143 346l143 -202l141 202l-141 200zM295 690l248 -334q3 -6 3 -10t-3 -10l-248 -336q-5 -6 -9 -6q-6 0 -10 6l-249 336q-3 6 -3 10t3 10l249 334q4 6 10 6q4 0 9 -6z"/>
<glyph glyph-name="c_t" d="M702 394v-233q0 -28 12 -39t42 -11h63l16 -103q-57 -20 -139 -20q-67 0 -104 37t-37 105v264h-241q-68 0 -93.5 -31t-25.5 -116q0 -81 25.5 -110t93.5 -29q78 0 133 9l13 -96q-69 -33 -173 -33q-136 0 -191.5 58.5t-55.5 200.5q0 134 58.5 190t190.5 56h265v138h148v-138 h137v-99h-137z" horiz-adv-x="860"/>
<glyph glyph-name="f_f_y" d="M1268 493l-175 -500q-13 -37 -31.5 -68.5t-46.5 -62t-69.5 -48t-91.5 -17.5q-10 0 -34 2l-11 87q59 16 93.5 42t53.5 68l2 4h-28q-37 0 -48 36l-114 321q-12 37 -50 37h-112v-394h-146v394h-209v-394h-146v394h-86v94l86 5v65q3 152 161 152q92 0 140 -10l-14 -98h-75 q-38 0 -52 -13t-14 -51v-45h209v75q0 152 163 152q101 0 156 -10l-13 -98h-94q-37 0 -51.5 -14t-14.5 -50v-55h156q116 0 147 -111l62 -208q9 -35 15 -74h13q5 14 12.5 43.5t7.5 30.5l91 319h158z" horiz-adv-x="1276"/>
<glyph glyph-name="f_t" d="M605 394v-233q0 -28 12 -39t42 -11h63l16 -103q-57 -20 -139 -20q-67 0 -104 37t-37 105v264h-204v-394h-149v394h-86v94l86 5v75q0 152 162 152q93 0 142 -10l-13 -98h-76q-37 0 -51.5 -14t-14.5 -50v-55h203v138h148v-138h137v-99h-137z" horiz-adv-x="763"/>
<glyph glyph-name="f_y" d="M913 493l-175 -500q-13 -37 -31.5 -68.5t-46.5 -62t-69.5 -48t-91.5 -17.5q-10 0 -34 2l-11 87q59 16 93.5 42t53.5 68l2 4h-28q-37 0 -48 36l-114 321q-12 37 -50 37h-109v-394h-149v394h-86v94l86 5v75q0 152 162 152q105 0 160 -10l-14 -98h-93q-37 0 -51.5 -14 t-14.5 -50v-55h153q116 0 147 -111l62 -208q9 -35 15 -74h13q16 57 20 74l91 319h158z" horiz-adv-x="921"/>
<glyph glyph-name="s_t" d="M732 394v-233q0 -28 12 -39t42 -11h63l16 -103q-57 -20 -139 -20q-67 0 -104 37.5t-37 104.5v263h-310q-35 0 -48.5 -0.5t-27 -3.5t-16.5 -9t-3 -17q0 -5 0.5 -9t2.5 -7.5t3.5 -5.5t5.5 -4.5t6.5 -3.5t9 -3.5t10 -3.5t13 -3.5t14.5 -3.5l126 -35q63 -19 90.5 -50.5 t27.5 -93.5q0 -88 -50 -119.5t-172 -31.5q-120 0 -221 17l9 96q36 -2 171 -2q72 0 96 7t24 30q0 19 -13 27t-44 17q-6 1 -9 2l-123 33q-68 20 -94 54.5t-26 95.5q0 69 46.5 98t157.5 29h6h338v138h147v-138h137v-99h-137z" horiz-adv-x="890"/>
<glyph glyph-name="t_t" d="M622 394v-233q0 -28 12 -39t42 -11h63l16 -103q-57 -20 -139 -20q-67 0 -104 37t-38 105v264h-221v-233q0 -28 12 -39t42 -11h63l16 -103q-57 -20 -139 -20q-67 0 -104 37.5t-37 104.5v264h-87v94l87 5v138h147v-138h221v138h148v-138h137v-99h-137z" horiz-adv-x="780"/>
<glyph glyph-name="t_y" d="M935 493l-175 -500q-13 -37 -31.5 -68.5t-46.5 -62t-69.5 -48t-91.5 -17.5q-10 0 -34 2l-11 87q60 16 94 41.5t53 68.5l2 4h-28q-37 0 -48 36l-114 321q-12 37 -50 37h-132v-233q0 -28 12 -39t42 -11h63l16 -103q-57 -20 -139 -20q-67 0 -104 37.5t-37 104.5v264h-87v94 l87 5v138h147v-138h176q116 0 147 -111l62 -208q9 -35 15 -74h12q11 34 21 74l91 319h158z" horiz-adv-x="943"/>
<glyph glyph-name="brevecy" d="M262 701h99q1 -6 1 -17q0 -58 -45.5 -98t-119.5 -40q-75 0 -120.5 40.5t-45.5 98.5q0 10 1 16h99v-9q0 -73 66 -73q65 0 65 70v12z" horiz-adv-x="393"/>
</font>
</defs>
</svg>
