<?xml version="1.0" standalone="no"?>
<!DOCTYPE svg PUBLIC "-//W3C//DTD SVG 1.1//EN" "http://www.w3.org/Graphics/SVG/1.1/DTD/svg11.dtd" >
<svg xmlns="http://www.w3.org/2000/svg">
<metadata></metadata>
<defs>
<font id="dezen_pro_regular" horiz-adv-x="196" >
<font-face units-per-em="1000" ascent="750" descent="-250" />
<missing-glyph horiz-adv-x="194" />
<glyph horiz-adv-x="0" />
<glyph horiz-adv-x="333" />
<glyph unicode=" "  horiz-adv-x="194" />
<glyph unicode="&#x09;" horiz-adv-x="194" />
<glyph unicode="&#xa0;" horiz-adv-x="194" />
<glyph unicode="!" d="M54 192v511h88v-511h-88zM54 0v101h88v-101h-88z" />
<glyph unicode="&#x22;" horiz-adv-x="267" d="M110 538h-74v232h74v-232zM231 538h-74v232h74v-232z" />
<glyph unicode="#" horiz-adv-x="481" d="M269 0l23 189h-142l-23 -189h-76l23 189h-52v69h61l23 190h-77v69h86l23 186h77l-24 -186h142l23 186h77l-24 -186h53v-69h-61l-24 -190h78v-69h-87l-23 -189h-76zM183 448l-24 -190h142l23 190h-141z" />
<glyph unicode="$" horiz-adv-x="502" d="M285 -82h-68v72q-78 1 -131 56t-53 133v46h86v-45q0 -46 31.5 -78.5t77.5 -32.5h44q49 0 79 33t30 82v19q0 50 -29.5 81t-93.5 31h-19q-91 0 -145 54.5t-54 130.5v33q0 73 51.5 125t125.5 55v73h68v-73q74 -4 124 -59t50 -131v-47h-84v46q0 46 -30.5 79t-76.5 33h-34 q-44 0 -75 -30t-31 -74v-21q0 -50 31 -83.5t92 -33.5h21q97 0 147 -50.5t50 -133.5v-28q0 -80 -51.5 -134.5t-132.5 -55.5v-72z" />
<glyph unicode="%" horiz-adv-x="606" d="M70 0l385 703h83l-385 -703h-83zM587 107q0 -47 -33 -80t-80 -33h-31q-47 0 -80 33t-33 80v109q0 47 33 80t80 33h31q47 0 80 -33t33 -80v-109zM396 211v-100q0 -22 15.5 -38t37.5 -16h19q22 0 37.5 16t15.5 38v100q0 23 -15.5 38.5t-37.5 15.5h-19q-22 0 -37.5 -16 t-15.5 -38zM278 487q0 -47 -32.5 -80t-79.5 -33h-32q-47 0 -79.5 33t-32.5 80v109q0 47 32.5 80t79.5 33h32q47 0 79.5 -33t32.5 -80v-109zM88 591v-100q0 -22 15.5 -38t37.5 -16h18q22 0 37.5 16t15.5 38v100q0 23 -15.5 38.5t-37.5 15.5h-18q-22 0 -37.5 -15.5 t-15.5 -38.5z" />
<glyph unicode="&#x26;" horiz-adv-x="566" d="M9 162v21q0 96 110 171l14 10q-57 74 -57 151v25q0 72 49.5 122.5t121.5 50.5h40q70 0 119 -50t49 -127v-65h-81v59q0 48 -27 76.5t-67 28.5h-27q-39 0 -66.5 -28.5t-27.5 -67.5v-20q0 -43 18.5 -78t75.5 -90l155 -149q9 12 10 13l101 120l59 -52l-102 -120l-12 -14 l112 -107l-57 -58l-109 105q-48 -49 -91.5 -74t-98.5 -25h-35q-75 0 -125.5 48.5t-50.5 123.5zM211 282l-26 24l-21 -14q-72 -49 -72 -113v-13q0 -42 29 -70t72 -28h26q62 0 136 74z" />
<glyph unicode="'" horiz-adv-x="146" d="M110 538h-74v232h74v-232z" />
<glyph unicode="(" horiz-adv-x="251" d="M136 -86q-82 85 -82 205v457q0 120 82 205l59 62l63 -56l-56 -59q-32 -35 -46 -70.5t-14 -98.5v-423q0 -64 13.5 -100t45.5 -70l56 -60l-62 -54z" />
<glyph unicode=")" horiz-adv-x="251" d="M197 576v-458q0 -120 -81 -204l-60 -63l-62 56l56 60q32 35 45.5 70t13.5 98v424q0 64 -13.5 99.5t-44.5 69.5l-56 60l61 55l60 -63q81 -84 81 -204z" />
<glyph unicode="*" horiz-adv-x="318" d="M6 514v68h93l-69 96l60 39l68 -96l70 96l60 -39l-71 -96h95v-68h-90l66 -91l-60 -39l-69 95l-69 -95l-60 39l66 91h-90z" />
<glyph unicode="+" horiz-adv-x="350" d="M15 315v75h121v122h76v-122h123v-75h-123v-122h-76v122h-121z" />
<glyph unicode="," horiz-adv-x="159" d="M123 -136h-87v264h87v-264z" />
<glyph unicode="-" horiz-adv-x="225" d="M16 217v76h193v-76h-193z" />
<glyph unicode="." horiz-adv-x="159" d="M36 0v101h87v-101h-87z" />
<glyph unicode="/" horiz-adv-x="283" d="M0 0l193 703h90l-193 -703h-90z" />
<glyph unicode="0" horiz-adv-x="528" d="M40 514q0 82 58.5 140.5t140.5 58.5h50q83 0 141 -58.5t58 -140.5v-325q0 -83 -58 -141t-141 -58h-50q-82 0 -140.5 58.5t-58.5 140.5v325zM128 512v-321q0 -50 34.5 -85t83.5 -35h36q49 0 84 35t35 85v321q0 50 -35 85t-84 35h-36q-49 0 -83.5 -35t-34.5 -85z" />
<glyph unicode="1" horiz-adv-x="307" d="M165 0v612l-163 -36v77l196 50h55v-703h-88z" />
<glyph unicode="2" horiz-adv-x="463" d="M26 0v68l236 288q58 70 72 98q14 29 14 56v18q0 44 -30.5 75t-74.5 31h-23q-45 0 -76 -33t-31 -79v-69h-82v70q0 80 52.5 135t130.5 55h41q76 0 129.5 -53t53.5 -129v-21q0 -19 -2.5 -35.5t-11 -34.5t-12.5 -28t-20 -30.5t-20 -26t-25.5 -30t-24.5 -28.5l-177 -212h299 v-85h-418z" />
<glyph unicode="3" horiz-adv-x="494" d="M35 497v33q0 77 51.5 130t127.5 53h51q76 0 129.5 -53.5t53.5 -129.5v-23q0 -46 -27.5 -90.5t-71.5 -61.5q52 -18 81.5 -61.5t29.5 -92.5v-27q0 -76 -53.5 -130t-129.5 -54h-67q-77 0 -130 53.5t-53 130.5v31h86v-30q0 -44 32 -76.5t76 -32.5h39q44 0 75.5 32.5 t31.5 76.5v28q0 49 -38.5 80.5t-98.5 31.5h-92v74h88q53 0 93 34.5t40 85.5v20q0 44 -31 76t-75 32h-28q-44 0 -74 -31.5t-30 -76.5v-32h-86z" />
<glyph unicode="4" horiz-adv-x="473" d="M291 703h96v-475h84v-77h-84v-151h-85v151h-300v66zM97 227h205v340z" />
<glyph unicode="5" horiz-adv-x="501" d="M47 180v39h85v-37q0 -47 31 -80t77 -33h36q46 0 77 33.5t31 81.5v35q0 51 -32.5 86t-85.5 35h-207v363h401v-81h-317v-203h139q82 0 136 -56.5t54 -137.5v-44q0 -80 -53.5 -135.5t-132.5 -55.5h-55q-78 0 -131 55.5t-53 134.5z" />
<glyph unicode="6" horiz-adv-x="508" d="M127 507v-119q20 10 58 18t63 8h41q79 0 132.5 -53.5t53.5 -132.5v-44q0 -81 -55 -137.5t-136 -56.5h-54q-80 0 -135 56.5t-55 137.5v327q0 85 55.5 143.5t138.5 58.5h45q80 0 134 -56.5t54 -137.5v-35h-85v30q0 49 -32.5 83.5t-79.5 34.5h-26q-50 0 -83.5 -36.5 t-33.5 -88.5zM241 337q-57 0 -114 -22v-129q0 -49 32.5 -83.5t79.5 -34.5h36q48 0 80.5 35t32.5 83v34q0 48 -32.5 82.5t-80.5 34.5h-34z" />
<glyph unicode="7" horiz-adv-x="414" d="M74 0l238 620h-304v83h405v-62l-246 -641h-93z" />
<glyph unicode="8" horiz-adv-x="513" d="M40 510v22q0 78 54 129.5t132 51.5h60q79 0 131.5 -51.5t52.5 -128.5v-24q0 -48 -24.5 -91t-65.5 -63q46 -17 72.5 -62t26.5 -97v-25q0 -76 -50.5 -128.5t-129.5 -52.5h-80q-78 0 -131.5 52.5t-53.5 129.5v25q0 51 26.5 97t71.5 61q-45 19 -68.5 62.5t-23.5 92.5z M269 316h-28q-60 0 -90.5 -35.5t-30.5 -77.5v-23q0 -47 33 -79.5t80 -32.5h52q47 0 76.5 32.5t29.5 78.5v23q0 48 -31 81t-91 33zM384 506v20q0 46 -31.5 77.5t-77.5 31.5h-40q-45 0 -76.5 -31t-31.5 -78v-20q0 -46 29 -79.5t88 -33.5h21q59 0 89 34.5t30 78.5z" />
<glyph unicode="9" horiz-adv-x="508" d="M381 196v124q-21 -10 -58.5 -18t-62.5 -8h-41q-78 0 -131.5 53.5t-53.5 132.5v39q0 81 55 137.5t135 56.5h54q81 0 135.5 -56.5t54.5 -137.5v-327q0 -85 -55.5 -143.5t-138.5 -58.5h-45q-80 0 -134 56.5t-54 137.5v36h85v-31q0 -49 32.5 -83.5t79.5 -34.5h26 q50 0 83.5 36.5t33.5 88.5zM267 371q53 0 114 21v126q0 48 -32 82.5t-80 34.5h-36q-48 0 -80 -34.5t-32 -82.5v-30q0 -48 32 -82.5t80 -34.5h34z" />
<glyph unicode=":" horiz-adv-x="159" d="M36 407v101h87v-101h-87zM36 0v101h87v-101h-87z" />
<glyph unicode=";" horiz-adv-x="159" d="M36 407v101h87v-101h-87zM36 -136v264h87v-264h-87z" />
<glyph unicode="&#x3c;" horiz-adv-x="350" d="M25 317v68l300 134v-79l-209 -89l209 -89v-79z" />
<glyph unicode="=" horiz-adv-x="350" d="M15 399v72h320v-72h-320zM15 234v72h320v-72h-320z" />
<glyph unicode="&#x3e;" horiz-adv-x="350" d="M325 317l-300 -134v79l208 89l-208 89v79l300 -134v-68z" />
<glyph unicode="?" horiz-adv-x="301" d="M52 192v41q0 58 51 115l49 54q47 52 47 104v17q0 42 -30 71.5t-71 29.5h-75v79h96q70 0 119 -49t49 -118v-22q0 -77 -59 -145l-52 -58q-37 -42 -37 -87v-32h-87zM52 0v101h87v-101h-87z" />
<glyph unicode="@" horiz-adv-x="683" d="M462 443v-311h25q41 0 68 29t27 80v109q0 86 -60.5 147.5t-145.5 61.5h-57q-91 0 -155.5 -65t-64.5 -156v-170q0 -86 61 -148t147 -62h89q98 0 163 80l45 56l51 -41l-43 -57q-89 -100 -213 -100h-96q-112 0 -191.5 79.5t-79.5 191.5v174q0 115 82.5 197.5t198.5 82.5h66 q111 0 190 -78.5t79 -188.5v-122q0 -60 -44 -112t-119 -52h-53q-34 0 -37 40q-33 -45 -87 -45h-22q-42 0 -69.5 27.5t-27.5 67.5v147q0 58 38.5 98t95.5 40h139zM307 129h17q26 0 48.5 24t22.5 55v171h-67q-34 0 -53 -24.5t-19 -59.5v-112q0 -23 13.5 -38.5t37.5 -15.5z" />
<glyph unicode="A" horiz-adv-x="486" d="M400 0l-51 187h-217l-52 -187h-85l197 703h104l194 -703h-90zM241 599l-89 -334h177z" />
<glyph unicode="B" horiz-adv-x="521" d="M54 0v703h230q74 0 126.5 -52.5t52.5 -126.5v-27q0 -41 -22 -81t-54 -60q43 -18 69.5 -60t26.5 -90v-28q0 -74 -51.5 -126t-125.5 -52h-252zM140 388h133q42 0 72 30t30 72v32q0 42 -30.5 72t-72.5 30h-132v-236zM140 79h151q42 0 71 30t29 72v31q0 43 -30 73t-78 30 h-143v-236z" />
<glyph unicode="C" horiz-adv-x="519" d="M394 266h87v-77q0 -83 -58.5 -141t-140.5 -58h-43q-82 0 -140.5 58.5t-58.5 140.5v325q0 82 58.5 140.5t140.5 58.5h43q82 0 140.5 -58.5t58.5 -140.5v-77h-87v75q0 50 -35 85t-84 35h-29q-49 0 -83.5 -35t-34.5 -85v-321q0 -50 34.5 -85t83.5 -35h29q49 0 84 35t35 85 v75z" />
<glyph unicode="D" horiz-adv-x="533" d="M492 199q0 -83 -58 -141t-141 -58h-239v703h239q83 0 141 -58.5t58 -140.5v-305zM142 624v-545h144q49 0 83.5 36t34.5 86v301q0 49 -35 85.5t-83 36.5h-144z" />
<glyph unicode="E" horiz-adv-x="435" d="M54 0v703h349v-79h-261v-233h249v-79h-249v-233h261v-79h-349z" />
<glyph unicode="F" horiz-adv-x="408" d="M54 0v703h342v-79h-254v-234h242v-79h-242v-311h-88z" />
<glyph unicode="G" horiz-adv-x="527" d="M487 463h-87v49q0 49 -35 84.5t-84 35.5h-35q-49 0 -83.5 -35t-34.5 -85v-322q0 -50 34.5 -85t83.5 -35h38q49 0 83.5 35t34.5 85v81h-124v78h210v-160q0 -83 -58 -141t-141 -58h-50q-82 0 -140.5 58.5t-58.5 140.5v325q0 82 58.5 140.5t140.5 58.5h48q83 0 141.5 -58.5 t58.5 -140.5v-51z" />
<glyph unicode="H" horiz-adv-x="550" d="M54 0v703h88v-312h266v312h87v-703h-87v312h-266v-312h-88z" />
<glyph unicode="I" d="M54 0v703h88v-703h-88z" />
<glyph unicode="J" horiz-adv-x="276" d="M-7 0v79h35q52 0 81.5 35.5t29.5 85.5v503h88v-520q0 -78 -50.5 -130.5t-130.5 -52.5h-53z" />
<glyph unicode="K" horiz-adv-x="496" d="M54 0v703h88v-312h100l152 312h93l-166 -346l190 -357h-99l-169 312h-101v-312h-88z" />
<glyph unicode="L" horiz-adv-x="388" d="M54 0v703h88v-624h256v-79h-344z" />
<glyph unicode="M" horiz-adv-x="616" d="M54 0v703h92l165 -368l163 368h88v-703h-84v530l-159 -355h-20l-161 355v-530h-84z" />
<glyph unicode="N" horiz-adv-x="549" d="M54 0v703h82l274 -505v505h84v-703h-67l-289 528v-528h-84z" />
<glyph unicode="O" horiz-adv-x="521" d="M40 514q0 82 58 140.5t141 58.5h43q82 0 140.5 -58.5t58.5 -140.5v-325q0 -82 -58.5 -140.5t-140.5 -58.5h-43q-83 0 -141 58t-58 141v325zM128 512v-321q0 -50 34.5 -85t83.5 -35h29q49 0 83.5 35t34.5 85v321q0 50 -34.5 85t-83.5 35h-29q-49 0 -83.5 -35t-34.5 -85z " />
<glyph unicode="P" horiz-adv-x="468" d="M54 0v703h217q81 0 138 -57t57 -138v-47q0 -81 -57 -138t-138 -57h-129v-266h-88zM142 345h125q46 0 79 33t33 80v53q0 47 -33 80t-79 33h-125v-279z" />
<glyph unicode="Q" horiz-adv-x="521" d="M217 -142v133q-75 8 -126 64.5t-51 133.5v325q0 82 58 140.5t141 58.5h43q82 0 140.5 -58.5t58.5 -140.5v-325q0 -76 -51 -132.5t-125 -64.5v-134h-88zM128 512v-321q0 -50 34.5 -85t83.5 -35h29q49 0 83.5 35t34.5 85v321q0 50 -34.5 85t-83.5 35h-29q-49 0 -83.5 -35 t-34.5 -85z" />
<glyph unicode="R" horiz-adv-x="510" d="M406 0l-136 280h-128v-280h-88v703h221q79 0 136 -56.5t57 -136.5v-37q0 -54 -29.5 -102t-79.5 -72l146 -299h-99zM142 358h127q46 0 78 32.5t32 78.5v44q0 46 -32 78.5t-78 32.5h-127v-266z" />
<glyph unicode="S" horiz-adv-x="502" d="M33 179v46h86v-45q0 -46 31.5 -78.5t77.5 -32.5h44q49 0 79 33t30 82v19q0 50 -29.5 80.5t-93.5 30.5h-19q-91 0 -145 55t-54 131v33q0 76 55 128t134 52h49q78 0 129.5 -55t51.5 -135v-47h-85v46q0 47 -30 79.5t-76 32.5h-34q-44 0 -75 -30t-31 -74v-21q0 -50 31 -83 t92 -33h21q97 0 147 -51t50 -134v-28q0 -80 -52.5 -135t-133.5 -55h-63q-79 0 -133 55t-54 134z" />
<glyph unicode="T" horiz-adv-x="417" d="M165 0v624h-175v79h437v-79h-175v-624h-87z" />
<glyph unicode="U" horiz-adv-x="534" d="M397 703h88v-518q0 -81 -57.5 -138t-137.5 -57h-45q-81 0 -138.5 57t-57.5 138v518h88v-515q0 -48 33.5 -82t80.5 -34h32q48 0 81 34t33 82v515z" />
<glyph unicode="V" horiz-adv-x="474" d="M184 0l-185 703h88l152 -581l151 581h85l-185 -703h-106z" />
<glyph unicode="W" horiz-adv-x="745" d="M156 0l-130 703h86l103 -578l115 578h91l110 -579l108 579h83l-135 -703h-110l-105 532l-110 -532h-106z" />
<glyph unicode="X" horiz-adv-x="457" d="M-1 0l176 351l-175 352h89l139 -277l140 277h89l-176 -351l177 -352h-91l-139 277l-139 -277h-90z" />
<glyph unicode="Y" horiz-adv-x="450" d="M181 0v283l-186 420h87l143 -326l144 326h86l-186 -420v-283h-88z" />
<glyph unicode="Z" horiz-adv-x="419" d="M11 0v68l290 556h-276v79h382v-56l-296 -568h296v-79h-396z" />
<glyph unicode="[" horiz-adv-x="251" d="M142 -37h104v-79h-192v935h192v-79h-104v-777z" />
<glyph unicode="\" horiz-adv-x="283" d="M193 0l-193 703h90l193 -703h-90z" />
<glyph unicode="]" horiz-adv-x="251" d="M5 -37h104v777h-104v79h192v-935h-192v79z" />
<glyph unicode="^" horiz-adv-x="293" d="M-2 421l113 283h71l113 -283h-78l-71 184l-71 -184h-77z" />
<glyph unicode="_" horiz-adv-x="309" d="M1 -59h308v-85h-308v85z" />
<glyph unicode="`" horiz-adv-x="302" d="M206 542l-160 93l34 57l159 -95z" />
<glyph unicode="a" horiz-adv-x="466" d="M471 71v-72h-46q-66 0 -89 46q-44 -50 -124 -50h-52q-59 0 -97.5 33.5t-38.5 94.5q0 64 37.5 98.5t102.5 34.5h161v91q0 37 -22.5 64t-58.5 27h-30q-41 0 -63 -27t-22 -65v-23h-83v37q0 64 45.5 109.5t113.5 45.5h55q66 0 109 -43.5t43 -106.5v-243q0 -28 11 -39.5 t36 -11.5h12zM183 62h40q35 0 67.5 23.5t34.5 73.5v28h-140q-35 0 -53.5 -16.5t-18.5 -47.5q0 -61 70 -61z" />
<glyph unicode="b" horiz-adv-x="485" d="M54 0v703h85v-239q36 51 115 51h53q60 0 100 -42t40 -101v-212q0 -70 -46.5 -118.5t-114.5 -48.5h-50q-72 0 -99 37v-30h-83zM243 438q-42 0 -70.5 -32t-30.5 -73v-189q0 -33 25 -54t61 -21h42q43 0 66.5 31.5t23.5 75.5v168q0 40 -20.5 67t-57.5 27h-39z" />
<glyph unicode="c" horiz-adv-x="469" d="M348 204h86v-40q0 -71 -48 -121t-118 -50h-63q-70 0 -118.5 50t-48.5 121v180q0 71 48.5 121t118.5 50h63q70 0 118 -50t48 -121v-41h-86v30q0 44 -24 74.5t-66 30.5h-43q-42 0 -66 -30.5t-24 -74.5v-159q0 -44 25 -74.5t67 -30.5h41q42 0 66 30.5t24 74.5v30z" />
<glyph unicode="d" horiz-adv-x="485" d="M430 703v-703h-84v44q-37 -51 -115 -51h-52q-61 0 -101 42t-40 101v208q0 71 47 121t118 50h48q64 0 94 -34v222h85zM203 69h39q42 0 71.5 34.5t29.5 76.5v190q-1 31 -25.5 49.5t-60.5 18.5h-42q-43 0 -66.5 -31t-23.5 -76v-168q0 -40 20 -67t58 -27z" />
<glyph unicode="e" horiz-adv-x="460" d="M343 195h84v-29q0 -74 -47 -123.5t-118 -49.5h-59q-70 0 -117.5 49t-47.5 122v182q0 70 50 119.5t121 49.5h53q70 0 117.5 -49t47.5 -120v-78h-306v-99q0 -43 25.5 -74t68.5 -31h38q42 0 66 31t24 76v24zM121 342v-8h223v8q0 43 -23.5 72t-66.5 29h-42q-43 0 -67 -29 t-24 -72z" />
<glyph unicode="f" horiz-adv-x="248" d="M9 432v76h67v49q0 61 40.5 103.5t101.5 42.5h84v-75h-70q-70 0 -70 -82v-38h106v-76h-106v-432h-86v432h-67z" />
<glyph unicode="g" horiz-adv-x="466" d="M463 434h-51q-6 0 -18 -2q16 -32 16 -67v-53q0 -62 -42 -106t-107 -44h-76q-27 0 -47 7q-4 -13 -4 -36v-7q0 -48 57 -48h128q60 0 99 -37.5t39 -92.5v-16q0 -63 -42.5 -100t-128.5 -37h-127q-70 0 -108 37.5t-38 82.5v32q0 37 17.5 64.5t47.5 40.5q-20 29 -20 60v17 q0 55 18 79q-39 42 -39 103v54q0 62 42.5 106t107.5 44h77q43 0 78 -24q27 16 58 16h63v-73zM202 445q-37 0 -59 -25t-22 -63v-37q0 -40 23 -64t58 -24h42q38 0 59.5 24.5t21.5 63.5v37q0 38 -22 63t-59 25h-42zM170 -131h107q94 0 94 67v8q0 24 -19.5 41t-48.5 17h-146 q-59 -3 -59 -60v-11q0 -24 18 -43t54 -19z" />
<glyph unicode="h" horiz-adv-x="490" d="M280 436h-34q-41 0 -71.5 -32t-32.5 -72v-332h-88v703h88v-252q18 34 52 49t70 15h34q64 0 103 -40.5t39 -102.5v-372h-89v349q0 36 -18.5 61.5t-52.5 25.5z" />
<glyph unicode="i" d="M54 0v508h88v-508h-88zM54 569v84h88v-84h-88z" />
<glyph unicode="j" horiz-adv-x="200" d="M-61 -196v75h49q33 0 51 23t18 60v546h88v-566q0 -58 -38.5 -98t-95.5 -40h-72zM57 569v84h88v-84h-88z" />
<glyph unicode="k" horiz-adv-x="434" d="M54 0v703h88v-410h79l109 215h93l-126 -250l142 -258h-95l-122 218h-80v-218h-88z" />
<glyph unicode="l" d="M54 0v703h88v-703h-88z" />
<glyph unicode="m" horiz-adv-x="753" d="M545 434h-24q-41 0 -69 -30.5t-30 -71.5v-332h-87v349q0 36 -18.5 60.5t-52.5 24.5h-24q-40 0 -68.5 -29.5t-31.5 -68.5v-336h-86v508h85v-56q19 32 52 47.5t66 15.5h36q73 0 110 -63q48 63 135 63h37q54 0 91 -39.5t37 -94.5v-381h-87v349q0 36 -18.5 60.5t-52.5 24.5z M139 427v25v-32v7z" />
<glyph unicode="n" horiz-adv-x="490" d="M280 436h-28q-47 0 -77.5 -33t-32.5 -74v-329h-88v508h87v-57q36 64 123 64h34q64 0 103 -40.5t39 -102.5v-372h-89v351q0 36 -18.5 60.5t-52.5 24.5z" />
<glyph unicode="o" horiz-adv-x="477" d="M205 515h67q70 0 118.5 -50t48.5 -121v-180q0 -71 -48.5 -121t-118.5 -50h-67q-70 0 -118.5 50t-48.5 121v180q0 71 48.5 121t118.5 50zM217 69h43q42 0 67 30.5t25 74.5v159q0 44 -25 74.5t-67 30.5h-43q-42 0 -67 -30.5t-25 -74.5v-159q0 -44 25 -74.5t67 -30.5z" />
<glyph unicode="p" horiz-adv-x="485" d="M54 -196v704h84v-45q37 52 116 52h53q60 0 100 -42t40 -101v-208q0 -71 -47.5 -121t-117.5 -50h-48q-66 0 -95 35v-224h-85zM243 438q-42 0 -70.5 -32t-30.5 -73v-192q0 -33 24.5 -52.5t61.5 -19.5h42q43 0 66.5 31.5t23.5 75.5v168q0 40 -20.5 67t-57.5 27h-39z" />
<glyph unicode="q" horiz-adv-x="486" d="M431 508v-704h-85v240q-37 -51 -114 -51h-53q-61 0 -101 42t-40 101v211q0 70 46.5 119t115.5 49h49q69 0 99 -37v30h83zM203 69h40q42 0 71.5 34.5t29.5 76.5v187q0 32 -25 51.5t-62 19.5h-42q-43 0 -66.5 -31t-23.5 -76v-168q0 -39 20.5 -66.5t57.5 -27.5z" />
<glyph unicode="r" horiz-adv-x="312" d="M54 0v508h84v-68q17 34 52.5 51t71.5 17h41v-79h-40q-54 0 -86.5 -36.5t-34.5 -89.5v-303h-88z" />
<glyph unicode="s" horiz-adv-x="452" d="M31 128v42h86v-28q0 -34 23.5 -55t66.5 -21h41q40 0 63 19t23 49v7q0 35 -25 55t-74 20h-18q-82 0 -129 37.5t-47 101.5v18q0 60 44.5 101t114.5 41h57q68 0 112 -40.5t44 -97.5v-35h-86v26q0 33 -22.5 53.5t-62.5 20.5h-30q-40 0 -62 -19t-22 -49v-6q0 -73 100 -73h19 q79 0 127.5 -37.5t48.5 -100.5v-25q0 -58 -45.5 -98.5t-110.5 -40.5h-79q-68 0 -112.5 39.5t-44.5 95.5z" />
<glyph unicode="t" horiz-adv-x="404" d="M9 432v76h63v87h86v-87h229v-76h-229v-292q0 -31 17.5 -51.5t47.5 -20.5h19q36 0 52.5 21t16.5 53v35h81v-50q0 -55 -38.5 -94.5t-94.5 -39.5h-56q-56 0 -93.5 38.5t-37.5 91.5v309h-63z" />
<glyph unicode="u" horiz-adv-x="489" d="M209 72h32q41 0 72.5 32t33.5 72v332h87v-508h-84v58q-19 -34 -54 -49.5t-69 -15.5h-44q-54 0 -93.5 41t-39.5 94v380h89v-349q0 -37 18 -62t52 -25z" />
<glyph unicode="v" horiz-adv-x="418" d="M271 0h-125l-146 508h88l121 -422l121 422h88z" />
<glyph unicode="w" horiz-adv-x="654" d="M239 0h-106l-113 508h84l87 -393l93 393h87l100 -393l86 393h84l-114 -508h-106l-94 360z" />
<glyph unicode="x" horiz-adv-x="399" d="M96 508l103 -183l104 183h96l-147 -252l150 -256h-96l-107 188l-106 -188h-97l151 257l-147 251h96z" />
<glyph unicode="y" horiz-adv-x="418" d="M17 -197v76h65q35 0 54.5 16t31.5 52l17 53h-38l-147 508h88l121 -423l121 423h88l-147 -508l-28 -84q-20 -61 -58 -87t-97 -26h-71z" />
<glyph unicode="z" horiz-adv-x="401" d="M25 429v79h355v-56l-248 -373h250v-79h-361v62l247 367h-243z" />
<glyph unicode="{" horiz-adv-x="263" d="M158 414q0 -44 -35 -63q35 -21 35 -63v-262q0 -25 18.5 -44.5t43.5 -19.5h38v-79h-65q-52 0 -87.5 35t-35.5 85v262q0 19 -11 33t-28 14h-30v79h30q17 0 28 14t11 33v262q0 50 35.5 84.5t87.5 34.5h65v-79h-38q-25 0 -43.5 -19t-18.5 -45v-262z" />
<glyph unicode="|" d="M54 -116v935h88v-935h-88z" />
<glyph unicode="}" horiz-adv-x="263" d="M105 26v262q0 44 35 63q-35 21 -35 63v262q0 26 -18 45t-44 19h-38v79h65q53 0 88.5 -34.5t35.5 -84.5v-262q0 -19 10.5 -33t27.5 -14h30v-79h-30q-17 0 -27.5 -14t-10.5 -33v-262q0 -51 -35.5 -85.5t-88.5 -34.5h-65v79h38q26 0 44 19.5t18 44.5z" />
<glyph unicode="~" horiz-adv-x="316" d="M4 345l25 31q31 39 73 39q23 0 50 -17l34 -21q17 -10 26 -10q15 0 24 12l22 27l53 -43l-27 -35q-28 -35 -64 -35q-29 0 -56 16l-31 20q-15 10 -27 10q-18 0 -26 -12l-21 -26z" />
<glyph unicode="&#xa2;" horiz-adv-x="469" d="M271 -82h-68v75q-70 1 -117.5 50.5t-47.5 120.5v180q0 70 48 120t117 51v75h68v-75q69 -1 116 -51t47 -120v-41h-86v30q0 44 -24 74.5t-66 30.5h-43q-42 0 -66 -30.5t-24 -74.5v-159q0 -44 25 -74.5t67 -30.5h41q42 0 66 30.5t24 74.5v30h86v-40q0 -70 -47 -120t-116 -51 v-75z" />
<glyph unicode="&#xa3;" horiz-adv-x="458" d="M28 320v64h69v117q0 85 60 143.5t149 58.5h119v-81h-113q-52 0 -89 -37.5t-37 -89.5v-111h213v-64h-213v-115q0 -72 -59 -124h319v-81h-430v78q81 52 81 124v118h-69z" />
<glyph unicode="&#xa5;" horiz-adv-x="464" d="M62 223v64h122l-182 416h88l142 -323l145 323h85l-186 -416h122v-64h-124v-68h124v-64h-124v-91h-88v91h-124v64h124v68h-124z" />
<glyph unicode="&#xa8;" horiz-adv-x="302" d="M191 571v82h70v-82h-70zM43 571v82h71v-82h-71z" />
<glyph unicode="&#xa9;" horiz-adv-x="690" d="M658 265q0 -112 -80 -193.5t-191 -81.5h-84q-112 0 -191.5 79.5t-79.5 190.5v184q0 111 79.5 190.5t191.5 79.5h84q112 0 191.5 -79.5t79.5 -190.5v-179zM591 443q0 86 -61 148t-146 62h-77q-86 0 -147 -62t-61 -148v-182q0 -86 61 -148t147 -62h77q85 0 146 64.5 t61 150.5v177zM426 319h70v-47q0 -53 -38 -91t-91 -38h-42q-53 0 -91 38t-38 91v161q0 53 38 90.5t91 37.5h42q53 0 91 -37.5t38 -90.5v-48h-70v45q0 28 -19 47.5t-46 19.5h-30q-27 0 -46.5 -19.5t-19.5 -47.5v-156q0 -28 19.5 -47.5t46.5 -19.5h30q27 0 46 19.5t19 47.5v45 z" />
<glyph unicode="&#xab;" horiz-adv-x="335" d="M229 122l-80 129v8l80 129h89l-83 -133l83 -133h-89zM93 122l-80 129v8l80 129h89l-83 -133l83 -133h-89z" />
<glyph unicode="&#xad;" horiz-adv-x="225" d="M16 217v76h193v-76h-193z" />
<glyph unicode="&#xae;" horiz-adv-x="545" d="M243 168q-92 0 -157 65.5t-65 157.5v101q0 92 65.5 157t156.5 65h58q92 0 157.5 -65t65.5 -157v-97q0 -93 -65.5 -160t-157.5 -67h-58zM244 221h57q67 0 116 52t49 120v102q0 68 -49 117.5t-116 49.5h-57q-68 0 -117 -49.5t-49 -117.5v-106q0 -68 49 -118t117 -50z M336 288l-49 111h-59v-111h-57v307h127q36 0 61.5 -25t25.5 -61v-23q0 -49 -42 -74l58 -124h-65zM228 451h64q13 0 22.5 9.5t9.5 22.5v28q0 13 -9.5 22.5t-22.5 9.5h-64v-92z" />
<glyph unicode="&#xb4;" horiz-adv-x="302" d="M101 541l-33 55l158 95l35 -57z" />
<glyph unicode="&#xb8;" horiz-adv-x="302" d="M124 0h59v-35q25 -4 42.5 -24t17.5 -47v-16q0 -34 -23 -56.5t-56 -22.5h-17q-33 0 -55.5 22.5t-22.5 56.5v17l55 -1v-14q0 -10 8 -18t19 -8h9q10 0 18 8t8 18v10q0 10 -7 17.5t-17 8.5h-38v84z" />
<glyph unicode="&#xbb;" horiz-adv-x="335" d="M106 388l80 -129v-8l-80 -129h-89l83 133l-83 133h89zM242 388l80 -129v-8l-80 -129h-89l83 133l-83 133h89z" />
<glyph unicode="&#xc2;" horiz-adv-x="486" d="M400 0l-51 187h-217l-52 -187h-85l197 703h104l194 -703h-90zM241 599l-89 -334h177zM131 746l-31 52l143 87l143 -87l-31 -52l-112 68z" />
<glyph unicode="&#xc7;" horiz-adv-x="519" d="M394 266h87v-77q0 -80 -55 -137t-134 -62v-25q25 -4 42.5 -24t17.5 -47v-16q0 -34 -23 -56.5t-56 -22.5h-17q-33 0 -55.5 22.5t-22.5 56.5v17l55 -1v-14q0 -10 8 -18t19 -8h9q11 0 18.5 8t7.5 18v10q0 10 -7 17.5t-17 8.5h-38v74q-80 3 -136.5 60.5t-56.5 138.5v325 q0 82 58.5 140.5t140.5 58.5h43q82 0 140.5 -58.5t58.5 -140.5v-77h-87v75q0 50 -35 85t-84 35h-29q-49 0 -83.5 -35t-34.5 -85v-321q0 -50 34.5 -85t83.5 -35h29q49 0 84 35t35 85v75z" />
<glyph unicode="&#xce;" d="M54 0v703h88v-703h-88zM-13 746l-31 52l143 87l143 -87l-31 -52l-112 68z" />
<glyph unicode="&#xd6;" horiz-adv-x="521" d="M40 514q0 82 58 140.5t141 58.5h43q82 0 140.5 -58.5t58.5 -140.5v-325q0 -82 -58.5 -140.5t-140.5 -58.5h-43q-83 0 -141 58t-58 141v325zM128 512v-321q0 -50 34.5 -85t83.5 -35h29q49 0 83.5 35t34.5 85v321q0 50 -34.5 85t-83.5 35h-29q-49 0 -83.5 -35t-34.5 -85z M301 763v82h70v-82h-70zM153 763v82h71v-82h-71z" />
<glyph unicode="&#xdb;" horiz-adv-x="534" d="M155 746l-31 52l143 87l143 -87l-31 -52l-112 68zM397 703h88v-518q0 -81 -57.5 -138t-137.5 -57h-45q-81 0 -138.5 57t-57.5 138v518h88v-515q0 -48 33.5 -82t80.5 -34h32q48 0 81 34t33 82v515z" />
<glyph unicode="&#xdc;" horiz-adv-x="534" d="M397 703h88v-518q0 -81 -57.5 -138t-137.5 -57h-45q-81 0 -138.5 57t-57.5 138v518h88v-515q0 -48 33.5 -82t80.5 -34h32q48 0 81 34t33 82v515zM307 763v82h70v-82h-70zM159 763v82h71v-82h-71z" />
<glyph unicode="&#xe2;" horiz-adv-x="466" d="M471 71v-72h-46q-66 0 -89 46q-44 -50 -124 -50h-52q-59 0 -97.5 33.5t-38.5 94.5q0 64 37.5 98.5t102.5 34.5h161v91q0 37 -22.5 64t-58.5 27h-30q-41 0 -63 -27t-22 -65v-23h-83v37q0 64 45.5 109.5t113.5 45.5h55q66 0 109 -43.5t43 -106.5v-243q0 -28 11 -39.5 t36 -11.5h12zM183 62h40q35 0 67.5 23.5t34.5 73.5v28h-140q-35 0 -53.5 -16.5t-18.5 -47.5q0 -61 70 -61zM119 553l-31 52l143 87l143 -87l-31 -52l-112 69z" />
<glyph unicode="&#xe7;" horiz-adv-x="469" d="M348 204h86v-40q0 -71 -48 -121t-118 -50v-28q25 -4 42.5 -24t17.5 -47v-16q0 -34 -23 -56.5t-56 -22.5h-17q-33 0 -55.5 22.5t-22.5 56.5v17l55 -1v-14q0 -10 8 -18t19 -8h9q11 0 18.5 8t7.5 18v10q0 10 -7 17.5t-17 8.5h-38v77h-4q-70 0 -118.5 50t-48.5 121v180 q0 71 48.5 121t118.5 50h63q70 0 118 -50t48 -121v-41h-86v30q0 44 -24 74.5t-66 30.5h-43q-42 0 -66 -30.5t-24 -74.5v-159q0 -44 25 -74.5t67 -30.5h41q42 0 66 30.5t24 74.5v30z" />
<glyph unicode="&#xee;" d="M-13 553l-31 52l143 87l143 -87l-31 -52l-112 69zM54 0v508h88v-508h-88z" />
<glyph unicode="&#xf6;" horiz-adv-x="477" d="M277 571v82h70v-82h-70zM129 571v82h71v-82h-71zM205 515h67q70 0 118.5 -50t48.5 -121v-180q0 -71 -48.5 -121t-118.5 -50h-67q-70 0 -118.5 50t-48.5 121v180q0 71 48.5 121t118.5 50zM217 69h43q42 0 67 30.5t25 74.5v159q0 44 -25 74.5t-67 30.5h-43q-42 0 -67 -30.5 t-25 -74.5v-159q0 -44 25 -74.5t67 -30.5z" />
<glyph unicode="&#xfb;" horiz-adv-x="489" d="M209 72h32q41 0 72.5 32t33.5 72v332h87v-508h-84v58q-19 -34 -54 -49.5t-69 -15.5h-44q-54 0 -93.5 41t-39.5 94v380h89v-349q0 -37 18 -62t52 -25zM131 553l-31 52l143 87l143 -87l-31 -52l-112 69z" />
<glyph unicode="&#xfc;" horiz-adv-x="489" d="M209 72h32q43 0 74.5 34t31.5 74v328h87v-508h-84v58q-19 -34 -54 -49.5t-69 -15.5h-44q-54 0 -93.5 41t-39.5 94v380h89v-349q0 -37 18 -62t52 -25zM135 571v82h71v-82h-71zM283 571v82h70v-82h-70z" />
<glyph unicode="&#x11e;" horiz-adv-x="527" d="M487 463h-87v49q0 49 -35 84.5t-84 35.5h-35q-49 0 -83.5 -35t-34.5 -85v-322q0 -50 34.5 -85t83.5 -35h38q49 0 83.5 35t34.5 85v81h-124v78h210v-160q0 -83 -58 -141t-141 -58h-50q-82 0 -140.5 58.5t-58.5 140.5v325q0 82 58.5 140.5t140.5 58.5h48q83 0 141.5 -58.5 t58.5 -140.5v-51zM248 741q-43 0 -72.5 29.5t-29.5 72.5v24h60v-24q0 -19 13.5 -32.5t32.5 -13.5h21q19 0 32.5 13.5t13.5 32.5v24h61v-24q0 -43 -30 -72.5t-72 -29.5h-30z" />
<glyph unicode="&#x11f;" horiz-adv-x="473" d="M463 434h-51q-6 0 -18 -2q16 -32 16 -67v-53q0 -62 -42 -106t-107 -44h-76q-27 0 -47 7q-4 -13 -4 -36v-7q0 -48 57 -48h128q60 0 99 -37.5t39 -92.5v-16q0 -63 -42.5 -100t-128.5 -37h-127q-70 0 -108 37.5t-38 82.5v32q0 37 17.5 64.5t47.5 40.5q-20 29 -20 60v17 q0 55 18 79q-39 42 -39 103v54q0 62 42.5 106t107.5 44h77q43 0 78 -24q27 16 58 16h63v-73zM202 445q-37 0 -59 -25t-22 -63v-37q0 -40 23 -64t58 -24h42q38 0 59.5 24.5t21.5 63.5v37q0 38 -22 63t-59 25h-42zM170 -131h107q94 0 94 67v8q0 24 -19.5 41t-48.5 17h-146 q-59 -3 -59 -60v-11q0 -24 18 -43t54 -19zM113 650v24h60v-24q0 -18 13.5 -32t32.5 -14h21q19 0 32.5 14t13.5 32v24h61v-24q0 -43 -30 -72.5t-72 -29.5h-30q-43 0 -72.5 29.5t-29.5 72.5z" />
<glyph unicode="&#x130;" d="M54 0v703h88v-703h-88zM57 764v82h84v-82h-84z" />
<glyph unicode="&#x131;" d="M54 0v508h88v-508h-88z" />
<glyph unicode="&#x15e;" horiz-adv-x="502" d="M33 179v46h86v-45q0 -46 31.5 -78.5t77.5 -32.5h44q49 0 79 33t30 82v19q0 50 -29.5 80.5t-93.5 30.5h-19q-91 0 -145 55t-54 131v33q0 76 55 128t134 52h49q78 0 129.5 -55t51.5 -135v-47h-85v46q0 47 -30 79.5t-76 32.5h-34q-44 0 -75 -30t-31 -74v-21q0 -50 31 -83 t92 -33h21q97 0 147 -51t50 -134v-28q0 -80 -52.5 -135t-133.5 -55h-2v-25q25 -4 42.5 -24t17.5 -47v-16q0 -34 -23 -56.5t-56 -22.5h-17q-33 0 -55.5 22.5t-22.5 56.5v17l55 -1v-14q0 -10 8 -18t19 -8h9q10 0 18 8t8 18v10q0 10 -7 17.5t-17 8.5h-38v74h-2q-79 0 -133 55 t-54 134z" />
<glyph unicode="&#x15f;" horiz-adv-x="452" d="M31 128v42h86v-28q0 -34 23.5 -55t66.5 -21h41q40 0 63 19t23 49v7q0 35 -25 55t-74 20h-18q-82 0 -129 37.5t-47 101.5v18q0 60 44.5 101t114.5 41h57q68 0 112 -40.5t44 -97.5v-35h-86v26q0 33 -22.5 53.5t-62.5 20.5h-30q-40 0 -62 -19t-22 -49v-6q0 -73 100 -73h19 q79 0 127.5 -37.5t48.5 -100.5v-25q0 -58 -45.5 -98.5t-110.5 -40.5h-8v-28q25 -4 42.5 -24t17.5 -47v-16q0 -34 -23 -56.5t-56 -22.5h-17q-33 0 -55.5 22.5t-22.5 56.5v17l55 -1v-14q0 -10 8 -18t19 -8h9q10 0 18 8t8 18v10q0 10 -7 17.5t-17 8.5h-38v77h-12 q-68 0 -112.5 39.5t-44.5 95.5z" />
<glyph unicode="&#x2c6;" horiz-adv-x="302" d="M39 553l-31 52l143 87l143 -87l-31 -52l-112 69z" />
<glyph unicode="&#x2da;" horiz-adv-x="302" d="M143 538q-31 0 -53.5 22t-22.5 53v15q0 31 22.5 52.5t53.5 21.5h16q31 0 53 -21.5t22 -52.5v-15q0 -31 -22 -53t-53 -22h-16zM146 589h10q10 0 18 8t8 18v10q0 10 -8 18t-18 8h-10q-10 0 -18 -7.5t-8 -18.5v-10q0 -10 8 -18t18 -8z" />
<glyph unicode="&#x2dc;" horiz-adv-x="302" d="M1 608l24 30q27 37 68 37q31 0 56 -17l29 -20q15 -11 27 -11q16 0 26 14l20 26l49 -39l-25 -33q-25 -35 -65 -35q-34 0 -55 15l-30 20q-18 12 -28 12q-16 0 -24 -10l-22 -29z" />
<glyph unicode="&#x2000;" horiz-adv-x="442" />
<glyph unicode="&#x2001;" horiz-adv-x="885" />
<glyph unicode="&#x2002;" horiz-adv-x="442" />
<glyph unicode="&#x2003;" horiz-adv-x="885" />
<glyph unicode="&#x2004;" horiz-adv-x="295" />
<glyph unicode="&#x2005;" horiz-adv-x="221" />
<glyph unicode="&#x2006;" horiz-adv-x="147" />
<glyph unicode="&#x2007;" horiz-adv-x="147" />
<glyph unicode="&#x2008;" horiz-adv-x="110" />
<glyph unicode="&#x2009;" horiz-adv-x="177" />
<glyph unicode="&#x200a;" horiz-adv-x="49" />
<glyph unicode="&#x2010;" horiz-adv-x="225" d="M16 217v76h193v-76h-193z" />
<glyph unicode="&#x2011;" horiz-adv-x="225" d="M16 217v76h193v-76h-193z" />
<glyph unicode="&#x2012;" horiz-adv-x="225" d="M16 217v76h193v-76h-193z" />
<glyph unicode="&#x2013;" horiz-adv-x="340" d="M16 217v76h307v-76h-307z" />
<glyph unicode="&#x2014;" horiz-adv-x="466" d="M16 217v76h434v-76h-434z" />
<glyph unicode="&#x2018;" horiz-adv-x="146" d="M110 538h-74v232h74v-232z" />
<glyph unicode="&#x2019;" horiz-adv-x="146" d="M110 538h-74v232h74v-232z" />
<glyph unicode="&#x201a;" horiz-adv-x="146" d="M110 -104h-74v232h74v-232z" />
<glyph unicode="&#x201c;" horiz-adv-x="267" d="M110 538h-74v232h74v-232zM231 538h-74v232h74v-232z" />
<glyph unicode="&#x201d;" horiz-adv-x="267" d="M110 538h-74v232h74v-232zM231 538h-74v232h74v-232z" />
<glyph unicode="&#x201e;" horiz-adv-x="267" d="M110 -104h-74v232h74v-232zM231 -104h-74v232h74v-232z" />
<glyph unicode="&#x2026;" horiz-adv-x="447" d="M331 0v87h81v-87h-81zM183 0v87h81v-87h-81zM36 0v87h80v-87h-80z" />
<glyph unicode="&#x202f;" horiz-adv-x="177" />
<glyph unicode="&#x2039;" horiz-adv-x="198" d="M93 122l-80 129v8l80 129h89l-83 -133l83 -133h-89z" />
<glyph unicode="&#x203a;" horiz-adv-x="198" d="M16 122l83 133l-83 133h89l80 -129v-8l-80 -129h-89z" />
<glyph unicode="&#x205f;" horiz-adv-x="221" />
<glyph unicode="&#x20ac;" horiz-adv-x="560" d="M435 254h88v-65q0 -83 -58 -141t-140 -58h-44q-82 0 -140.5 58.5t-58.5 140.5v58h-63v64h63v82h-63v64h63v57q0 82 58.5 140.5t140.5 58.5h42q83 0 141.5 -58.5t58.5 -140.5v-65h-88v63q0 50 -34.5 85t-83.5 35h-29q-49 0 -83.5 -35t-34.5 -85v-55h210v-64h-210v-82h210 v-64h-210v-56q0 -50 34.5 -85t83.5 -35h30q49 0 83 35t34 85v63z" />
<glyph unicode="&#x2122;" horiz-adv-x="668" d="M311 335v368h73l92 -178l91 178h70v-368h-65v254l-87 -170h-22l-87 170v-254h-65zM100 335v305h-100v63h270v-63h-100v-305h-70z" />
<glyph unicode="&#x25fc;" horiz-adv-x="510" d="M0 510h510v-510h-510v510z" />
</font>
</defs>
</svg>
